<?xml version="1.0" standalone="no"?>
<!DOCTYPE svg PUBLIC "-//W3C//DTD SVG 1.1//EN" "http://www.w3.org/Graphics/SVG/1.1/DTD/svg11.dtd" >
<svg xmlns="http://www.w3.org/2000/svg" xmlns:xlink="http://www.w3.org/1999/xlink" version="1.1">
<metadata>
Created by FontForge 20170731 at Wed Oct  3 17:38:01 2012
 By Aleksey,,,
Digitized data copyright (c) 2010 Google Corporation.
Copyright (c) 2012 Red Hat, Inc.
</metadata>
<defs>
<font id="LiberationSans-Italic" horiz-adv-x="1139" >
  <font-face 
    font-family="Liberation Sans"
    font-weight="400"
    font-style="italic"
    font-stretch="normal"
    units-per-em="2048"
    panose-1="2 11 6 4 2 2 2 9 2 4"
    ascent="1638"
    descent="-410"
    x-height="1082"
    cap-height="1409"
    bbox="-1360 -621 2787 2077"
    underline-thickness="150"
    underline-position="-442"
    slope="-12"
    unicode-range="U+0020-FFFC"
  />
<missing-glyph horiz-adv-x="1536" 
 />
    <glyph glyph-name=".notdef" horiz-adv-x="1536" 
 />
    <glyph glyph-name=".null" horiz-adv-x="0" 
 />
    <glyph glyph-name="nonmarkingreturn" horiz-adv-x="569" 
 />
    <glyph glyph-name="space" unicode=" " horiz-adv-x="569" 
 />
    <glyph glyph-name="exclam" unicode="!" horiz-adv-x="569" 
d="M329 397h-148l172 1012h196zM77 0l40 201h194l-40 -201h-194z" />
    <glyph glyph-name="quotedbl" unicode="&#x22;" horiz-adv-x="727" 
d="M697 966h-142l64 443h184zM328 966h-141l63 443h184z" />
    <glyph glyph-name="numbersign" unicode="#" 
d="M926 885l-78 -369h260v-108h-283l-88 -408h-110l86 408h-363l-84 -408h-110l84 408h-201v108h225l78 369h-252v108h274l89 408h110l-88 -408h363l88 408h110l-88 -408h211v-108h-233zM455 885l-80 -369h362l78 369h-360z" />
    <glyph glyph-name="dollar" unicode="$" 
d="M1072 425q0 -185 -137.5 -290.5t-394.5 -113.5l-31 -161h-114l32 163q-201 14 -306.5 104t-132.5 249l163 37q25 -115 97.5 -174t206.5 -69l96 493q-149 41 -221.5 86.5t-110.5 110t-38 158.5q0 112 65 194.5t181.5 127t263.5 45.5l25 131h114l-27 -137
q156 -19 248.5 -94t118.5 -198l-156 -45q-45 167 -238 194l-86 -441q196 -53 289 -145t93 -225zM887 413q0 78 -50.5 128.5t-177.5 90.5l-90 -463q318 17 318 244zM363 1018q0 -67 45 -110t174 -83l81 415q-145 -5 -222.5 -62t-77.5 -160z" />
    <glyph glyph-name="percent" unicode="%" horiz-adv-x="1821" 
d="M425 0h-165l1186 1409h167zM545 1421q125 0 192 -79t67 -229q0 -106 -27 -221.5t-82 -199t-127.5 -126t-161.5 -42.5q-124 0 -192 82.5t-68 234.5q0 147 46.5 289.5t134.5 216.5t218 74zM544 1313q-67 0 -110 -31t-75 -97.5t-53.5 -173.5t-21.5 -184q0 -190 126 -190
q85 0 140 67t85 199t30 228q0 182 -121 182zM1474 885q125 0 192 -79t67 -229q0 -106 -27 -221.5t-82 -199t-127.5 -126t-161.5 -42.5q-124 0 -192 82.5t-68 234.5q0 147 46.5 289.5t134.5 216.5t218 74zM1473 777q-67 0 -110 -31t-75 -97.5t-53.5 -173.5t-21.5 -184
q0 -190 126 -190q85 0 140 67t85 199t30 228q0 182 -121 182z" />
    <glyph glyph-name="ampersand" unicode="&#x26;" horiz-adv-x="1366" 
d="M1248 684q-139 -315 -291 -476q40 -38 90.5 -58.5t96.5 -20.5q60 0 112 16l-13 -135q-60 -22 -125 -22q-149 0 -271 122q-178 -130 -407 -130q-189 0 -298 100.5t-109 270.5q0 157 93 259.5t336 195.5q-28 119 -28 230q0 173 108.5 277t290.5 104q138 0 224.5 -72
t86.5 -190q0 -116 -81.5 -202t-291.5 -169l-125 -50q76 -224 218 -419q60 68 117 162t135 262zM452 111q163 0 301 101q-73 90 -140 212.5t-111 250.5q-168 -66 -233.5 -138.5t-65.5 -182.5q0 -111 68.5 -177t180.5 -66zM592 1041q0 -78 19 -178q79 29 148 55t120.5 58
t81 73t29.5 99q0 65 -45.5 106.5t-118.5 41.5q-112 0 -173 -67.5t-61 -187.5z" />
    <glyph glyph-name="quotesingle" unicode="'" horiz-adv-x="391" 
d="M343 966h-141l63 443h184z" />
    <glyph glyph-name="parenleft" unicode="(" horiz-adv-x="682" 
d="M855 1484q-578 -509 -578 -1222q0 -389 207 -686h-174q-214 296 -214 702q0 372 150 679t435 527h174z" />
    <glyph glyph-name="parenright" unicode=")" horiz-adv-x="682" 
d="M-199 -424q578 509 578 1222q0 389 -207 686h174q214 -296 214 -702q0 -372 -150 -679t-435 -527h-174z" />
    <glyph glyph-name="asterisk" unicode="*" horiz-adv-x="797" 
d="M543 1114l264 103l45 -132l-282 -73l185 -250l-119 -72l-150 258l-156 -256l-119 72l189 248l-280 73l45 134l267 -107l-12 297h136z" />
    <glyph glyph-name="plus" unicode="+" horiz-adv-x="1196" 
d="M701 608v-428h-147v428h-424v146h424v428h147v-428h424v-146h-424z" />
    <glyph glyph-name="comma" unicode="," horiz-adv-x="569" 
d="M160 -262h-123q120 137 145 262h-88l42 219h195l-32 -168q-18 -95 -51 -170t-88 -143z" />
    <glyph glyph-name="hyphen" unicode="-" horiz-adv-x="682" 
d="M105 464l31 160h500l-31 -160h-500z" />
    <glyph glyph-name="period" unicode="." horiz-adv-x="569" 
d="M80 0l43 219h195l-43 -219h-195z" />
    <glyph glyph-name="slash" unicode="/" horiz-adv-x="569" 
d="M-116 -20l703 1504h158l-700 -1504h-161z" />
    <glyph glyph-name="zero" unicode="0" 
d="M732 1430q183 0 286.5 -123t103.5 -343q0 -256 -78 -495.5t-221 -364t-347 -124.5q-181 0 -284 129t-103 356q0 180 44.5 366t124 322t197 206.5t277.5 70.5zM491 127q151 0 246.5 106t152.5 329.5t57 410.5q0 155 -59.5 233t-167.5 78q-151 0 -246.5 -106t-152.5 -329.5
t-57 -410.5q0 -155 59.5 -233t167.5 -78z" />
    <glyph glyph-name="one" unicode="1" 
d="M53 0l30 153h359l208 1070l-361 -223l35 180l377 229h166l-244 -1256h343l-30 -153h-883z" />
    <glyph glyph-name="two" unicode="2" 
d="M-12 0l24 127q55 93 123 166t142 132.5t150.5 108.5t148 94.5t134 90.5t109.5 96t74 111.5t27 136.5q0 98 -62.5 158.5t-168.5 60.5q-109 0 -190 -59.5t-118 -178.5l-170 37q54 170 178 259.5t311 89.5q182 0 295.5 -98t113.5 -254q0 -106 -51 -203t-153.5 -186
t-308.5 -219q-147 -93 -237.5 -169t-136.5 -148h727l-29 -153h-932z" />
    <glyph glyph-name="three" unicode="3" 
d="M566 795q183 0 273.5 73t90.5 213q0 93 -60.5 147t-161.5 54q-119 0 -204.5 -61t-119.5 -172l-178 14q58 186 191.5 276.5t320.5 90.5t295 -92t108 -252q0 -153 -96.5 -249.5t-271.5 -119.5l-1 -4q131 -26 204 -104.5t73 -201.5q0 -125 -60.5 -222.5t-175 -151
t-267.5 -53.5q-128 0 -226 44t-162.5 124.5t-89.5 189.5l164 48q30 -116 118 -186.5t211 -70.5q141 0 220.5 74.5t79.5 200.5q0 112 -75 173.5t-204 61.5h-124l30 156h98z" />
    <glyph glyph-name="four" unicode="4" 
d="M846 319l-62 -319h-180l62 319h-653l27 140l819 950h199l-184 -948h188l-28 -142h-188zM826 1157l-599 -696h467z" />
    <glyph glyph-name="five" unicode="5" 
d="M343 1409h801l-29 -153h-637l-114 -447q50 42 122 66t155 24q184 0 297 -106.5t113 -286.5q0 -246 -144 -386t-402 -140q-371 0 -459 329l163 43q31 -114 110 -169.5t196 -55.5q166 0 256 93.5t90 265.5q0 122 -69 194t-185 72q-163 0 -282 -101h-176z" />
    <glyph glyph-name="six" unicode="6" 
d="M534 -20q-193 0 -306 134t-113 350q0 241 83.5 476.5t228.5 362.5t334 127q150 0 246.5 -71.5t131.5 -207.5l-166 -36q-25 81 -82 125t-138 44q-164 0 -279 -146t-167 -412q60 90 151.5 137.5t204.5 47.5q172 0 278 -105t106 -273q0 -152 -66.5 -280.5t-184 -200.5
t-262.5 -72zM288 421q0 -131 68 -213.5t182 -82.5q139 0 231 112.5t92 284.5q0 115 -59.5 182.5t-171.5 67.5q-93 0 -171.5 -42.5t-124.5 -120.5t-46 -188z" />
    <glyph glyph-name="seven" unicode="7" 
d="M435 0h-188q41 204 124.5 388t208 365t406.5 503h-774l29 153h961l-28 -146q-223 -262 -308 -372t-153 -214t-121 -210.5t-92.5 -222.5t-64.5 -244z" />
    <glyph glyph-name="eight" unicode="8" 
d="M704 1429q191 0 307 -91.5t116 -246.5q0 -140 -86.5 -238t-233.5 -120l-1 -4q110 -33 168.5 -110t58.5 -187q0 -208 -142 -330t-391 -122q-213 0 -329.5 101t-116.5 279q0 150 91 253.5t266 142.5v4q-91 38 -141 113.5t-50 178.5q0 177 130 277t354 100zM658 811
q134 0 208.5 71.5t74.5 204.5q0 98 -65.5 152.5t-192.5 54.5q-133 0 -208 -67t-75 -194q0 -103 68.5 -162.5t189.5 -59.5zM566 672q-156 0 -241.5 -83t-85.5 -233q0 -112 74 -175.5t206 -63.5q148 0 239.5 86t91.5 233q0 111 -76.5 173.5t-207.5 62.5z" />
    <glyph glyph-name="nine" unicode="9" 
d="M898 684q-134 -203 -339 -203q-118 0 -208 51.5t-139 143.5t-49 205q0 152 66 278.5t185.5 198.5t267.5 72q196 0 305.5 -127t109.5 -346q0 -155 -37.5 -323.5t-100.5 -293.5t-143 -205.5t-173 -117.5t-190 -37q-308 0 -383 277l158 45q24 -85 83 -131t150 -46
q158 0 269.5 144.5t167.5 414.5zM925 1017q0 121 -69 194t-178 73q-148 0 -240 -108t-92 -297q0 -122 63 -189t171 -67q94 0 176.5 51t125.5 136t43 207z" />
    <glyph glyph-name="colon" unicode=":" horiz-adv-x="569" 
d="M251 875l41 207h195l-41 -207h-195zM81 0l41 207h195l-41 -207h-195z" />
    <glyph glyph-name="semicolon" unicode=";" horiz-adv-x="569" 
d="M161 -262h-123q120 137 145 262h-88l40 207h195l-30 -156q-18 -95 -51 -170t-88 -143zM265 875l40 207h195l-40 -207h-195z" />
    <glyph glyph-name="less" unicode="&#x3c;" horiz-adv-x="1196" 
d="M131 571v205l995 418v-154l-858 -366l858 -367v-153z" />
    <glyph glyph-name="equal" unicode="=" horiz-adv-x="1196" 
d="M130 856v148h995v-148h-995zM130 344v148h995v-148h-995z" />
    <glyph glyph-name="greater" unicode="&#x3e;" horiz-adv-x="1196" 
d="M131 154v153l858 367l-858 366v154l995 -418v-205z" />
    <glyph glyph-name="question" unicode="?" 
d="M701 1430q197 0 314.5 -100t117.5 -257q0 -97 -30.5 -165.5t-79 -119t-109 -87.5t-120.5 -72q-127 -72 -176 -128t-63 -124h-175q13 80 48 139.5t87.5 106.5t186.5 123q106 60 152 101.5t69 91.5t23 113q0 98 -73 158t-189 60q-140 0 -231 -70t-129 -192l-165 40
q63 195 199.5 288.5t342.5 93.5zM299 0l39 201h195l-39 -201h-195z" />
    <glyph glyph-name="at" unicode="@" horiz-adv-x="2079" 
d="M1935 755q0 -186 -57.5 -336.5t-160 -232.5t-229.5 -82q-101 0 -154 45.5t-53 130.5l3 70h-6q-66 -123 -163.5 -184.5t-210.5 -61.5q-157 0 -243.5 102t-86.5 283q0 164 64.5 305t180.5 224t257 83q219 0 301 -182h6l39 160h156l-116 -506q-37 -164 -37 -253
q0 -94 81 -94q80 0 147.5 69t106.5 190t39 268q0 179 -77 317.5t-222 213t-339 74.5q-242 0 -428 -107t-292 -308.5t-106 -451.5q0 -193 78.5 -340.5t227 -226.5t346.5 -79q313 0 603 162l55 -112q-145 -87 -314.5 -132.5t-343.5 -45.5q-240 0 -419.5 95t-276.5 272t-97 407
q0 280 124.5 509t345.5 356.5t495 127.5q241 0 416 -90.5t267.5 -255.5t92.5 -383zM1329 747q0 102 -66 164.5t-176 62.5q-101 0 -179.5 -63.5t-123.5 -177.5t-45 -242q0 -120 47.5 -188t146.5 -68q80 0 153 44t128 121.5t85 176t30 170.5z" />
    <glyph glyph-name="A" unicode="A" horiz-adv-x="1366" 
d="M1061 0l-75 412h-639l-240 -412h-208l848 1409h217l292 -1409h-195zM830 1265q-13 -26 -37 -69t-362 -635h527l-102 553z" />
    <glyph glyph-name="B" unicode="B" horiz-adv-x="1366" 
d="M336 1409h510q209 0 329.5 -86.5t120.5 -235.5q0 -285 -339 -344q138 -23 214 -104.5t76 -199.5q0 -213 -156 -326t-433 -113h-595zM411 810h331q355 0 355 258q0 188 -268 188h-331zM283 153h368q210 0 307.5 73.5t97.5 215.5q0 107 -79.5 163t-228.5 56h-366z" />
    <glyph glyph-name="C" unicode="C" horiz-adv-x="1479" 
d="M1358 337q-126 -188 -286 -272.5t-372 -84.5q-181 0 -314.5 72.5t-203 206.5t-69.5 310q0 246 105 445t291.5 307.5t416.5 108.5q217 0 366.5 -90.5t197.5 -254.5l-180 -55q-36 112 -139.5 178t-254.5 66q-184 0 -324 -88.5t-215 -249t-75 -370.5q0 -200 109 -315.5
t302 -115.5q148 0 276 73.5t226 217.5z" />
    <glyph glyph-name="D" unicode="D" horiz-adv-x="1479" 
d="M744 1409q312 0 490.5 -164.5t178.5 -453.5q0 -236 -103 -413t-296.5 -277.5t-438.5 -100.5h-512l273 1409h408zM283 153h284q195 0 344 77.5t228.5 223t79.5 339.5q0 219 -126 341t-353 122h-242z" />
    <glyph glyph-name="E" unicode="E" horiz-adv-x="1366" 
d="M63 0l273 1409h1049l-30 -156h-858l-88 -452h798l-30 -154h-798l-95 -491h899l-30 -156h-1090z" />
    <glyph glyph-name="F" unicode="F" horiz-adv-x="1251" 
d="M497 1253l-102 -524h796l-31 -158h-796l-110 -571h-191l273 1409h1011l-30 -156h-820z" />
    <glyph glyph-name="G" unicode="G" horiz-adv-x="1593" 
d="M742 -20q-305 0 -473 156t-168 437q0 249 105 445.5t297.5 304t440.5 107.5q222 0 364 -84t197 -248l-193 -54q-37 115 -134 172.5t-246 57.5q-192 0 -336.5 -86t-221.5 -244.5t-77 -366.5q0 -211 118 -326.5t333 -115.5q138 0 264 39.5t219 116.5l51 254h-421l32 160
h597l-100 -495q-140 -120 -298.5 -175t-349.5 -55z" />
    <glyph glyph-name="H" unicode="H" horiz-adv-x="1479" 
d="M1021 0l127 653h-767l-127 -653h-191l274 1409h191l-116 -596h767l116 596h186l-274 -1409h-186z" />
    <glyph glyph-name="I" unicode="I" horiz-adv-x="569" 
d="M81 0l274 1409h191l-274 -1409h-191z" />
    <glyph glyph-name="J" unicode="J" horiz-adv-x="1024" 
d="M381 -20q-159 0 -259.5 93t-126.5 270l168 33q23 -117 79 -179t156 -62q105 0 170 72.5t95 232.5l157 813h-291l30 156h481l-193 -986q-43 -224 -157 -333.5t-309 -109.5z" />
    <glyph glyph-name="K" unicode="K" horiz-adv-x="1366" 
d="M1022 0l-472 674l-190 -129l-106 -545h-191l273 1409h191l-136 -691l140 129l665 562h245l-750 -630l557 -779h-226z" />
    <glyph glyph-name="L" unicode="L" 
d="M63 0l273 1409h191l-243 -1253h712l-30 -156h-903z" />
    <glyph glyph-name="M" unicode="M" horiz-adv-x="1706" 
d="M1261 0l180 928q36 185 65 300q-91 -189 -145 -280l-548 -948h-124l-185 948q-6 29 -41 280q-9 -60 -30 -187.5t-200 -1040.5h-170l273 1409h236l189 -977q8 -39 32 -205l104 213l553 969h256l-273 -1409h-172z" />
    <glyph glyph-name="N" unicode="N" horiz-adv-x="1479" 
d="M987 0l-531 1210q-22 -171 -42 -267l-181 -943h-170l273 1409h212l534 -1215q26 189 45 284l181 931h172l-273 -1409h-220z" />
    <glyph glyph-name="O" unicode="O" horiz-adv-x="1593" 
d="M938 1430q277 0 437.5 -157t160.5 -422q-5 -268 -112 -463.5t-293 -301.5t-422 -106q-284 0 -441 157.5t-157 435.5q0 239 105.5 439.5t294.5 309t427 108.5zM929 1276q-200 0 -339.5 -89t-213.5 -266t-74 -358q0 -209 106.5 -318.5t309.5 -109.5q197 0 335.5 86.5
t215 259.5t76.5 366q0 207 -108.5 318t-307.5 111z" />
    <glyph glyph-name="P" unicode="P" horiz-adv-x="1366" 
d="M852 1409q231 0 366 -104t135 -285q0 -220 -152.5 -345.5t-416.5 -125.5h-424l-106 -549h-191l273 1409h516zM390 700h387q382 0 382 311q0 119 -79 182t-233 63h-349z" />
    <glyph glyph-name="Q" unicode="Q" horiz-adv-x="1593" 
d="M928 1430q277 0 437.5 -157t160.5 -422q-5 -244 -94 -428t-246.5 -296t-363.5 -139q17 -121 67 -176.5t149 -55.5q58 0 123 13l-18 -134q-76 -22 -169 -22q-151 0 -232 86t-104 284q-253 17 -395 172t-142 418q0 239 105.5 439.5t294.5 309t427 108.5zM919 1276
q-200 0 -339.5 -89t-213.5 -266t-74 -358q0 -209 106.5 -318.5t309.5 -109.5q197 0 335.5 86.5t215 259.5t76.5 366q0 207 -108.5 318t-307.5 111z" />
    <glyph glyph-name="R" unicode="R" horiz-adv-x="1479" 
d="M1051 0l-243 585h-441l-113 -585h-191l273 1409h612q214 0 341 -102t127 -268q0 -188 -108 -298t-319 -139l268 -602h-206zM857 736q181 0 273 75.5t92 212.5q0 112 -74.5 172t-222.5 60h-427l-101 -520h460z" />
    <glyph glyph-name="S" unicode="S" horiz-adv-x="1366" 
d="M616 -20q-249 0 -386.5 88.5t-171.5 269.5l177 37q27 -129 120 -187t275 -58q219 0 320 65.5t101 200.5q0 67 -29 107.5t-99 73t-241 80.5q-171 47 -255.5 96.5t-128 119.5t-43.5 168q0 182 153.5 285.5t415.5 103.5q220 0 353 -76t167 -222l-173 -51q-33 105 -118.5 155
t-229.5 50q-376 0 -376 -236q0 -60 25.5 -98t84 -66.5t232.5 -75.5q195 -54 280.5 -104t131 -121.5t45.5 -176.5q0 -206 -155 -317t-475 -111z" />
    <glyph glyph-name="T" unicode="T" horiz-adv-x="1251" 
d="M858 1253l-244 -1253h-190l244 1253h-484l30 156h1158l-30 -156h-484z" />
    <glyph glyph-name="U" unicode="U" horiz-adv-x="1479" 
d="M654 -20q-233 0 -367 120.5t-134 330.5q0 44 7.5 105.5t15.5 98.5l150 774h191l-162 -843q-17 -87 -17 -143q0 -136 87.5 -212t244.5 -76q384 0 461 406l168 868h190l-170 -879q-54 -273 -222 -411.5t-443 -138.5z" />
    <glyph glyph-name="V" unicode="V" horiz-adv-x="1366" 
d="M677 0h-198l-302 1409h194l198 -992l35 -249l133 249l580 992h208z" />
    <glyph glyph-name="W" unicode="W" horiz-adv-x="1933" 
d="M1406 0h-223l-71 895q-14 275 -16 324q-76 -199 -135 -324l-419 -895h-223l-142 1409h197l79 -895q12 -155 16 -346q79 188 130.5 302t443.5 939h183l75 -877q14 -154 17 -364l16 35q48 115 78 184t481 1022h201z" />
    <glyph glyph-name="X" unicode="X" horiz-adv-x="1366" 
d="M999 0l-303 606l-524 -606h-211l654 746l-340 663h199l270 -551l475 551h211l-600 -676l368 -733h-199z" />
    <glyph glyph-name="Y" unicode="Y" horiz-adv-x="1366" 
d="M672 0h-190l115 584l-384 825h196l306 -674l560 674h214l-704 -825z" />
    <glyph glyph-name="Z" unicode="Z" horiz-adv-x="1251" 
d="M1082 0h-1122l27 143l1054 1110h-765l30 156h1002l-27 -139l-1054 -1114h885z" />
    <glyph glyph-name="bracketleft" unicode="[" horiz-adv-x="569" 
d="M-39 -425l370 1909h407l-25 -129h-233l-321 -1651h233l-25 -129h-406z" />
    <glyph glyph-name="backslash" unicode="\" horiz-adv-x="569" 
d="M320 -20l-174 1504h148l178 -1504h-152z" />
    <glyph glyph-name="bracketright" unicode="]" horiz-adv-x="569" 
d="M-169 -425l25 129h232l321 1651h-233l25 129h407l-371 -1909h-406z" />
    <glyph glyph-name="asciicircum" unicode="^" horiz-adv-x="961" 
d="M817 673l-309 633l-306 -633h-162l368 736h203l370 -736h-164z" />
    <glyph glyph-name="underscore" unicode="_" 
d="M-160 -250v76h1178v-76h-1178z" />
    <glyph glyph-name="grave" unicode="`" horiz-adv-x="682" 
d="M412 1201l-282 278l5 29h207l161 -287l-3 -20h-88z" />
    <glyph glyph-name="a" unicode="a" 
d="M927 -10q-93 0 -135.5 38.5t-42.5 114.5l5 64h-6q-83 -126 -172 -176.5t-215 -50.5q-140 0 -227.5 84t-87.5 214q0 185 132.5 280t422.5 99l232 3q19 98 19 127q0 91 -53 134.5t-147 43.5q-119 0 -180 -42.5t-88 -129.5l-178 29q45 147 156.5 213.5t299.5 66.5
q171 0 270.5 -80t99.5 -215q0 -64 -19 -157l-74 -378q-11 -48 -11 -88q0 -73 81 -73q27 0 60 7l-14 -112q-66 -16 -128 -16zM809 536l-199 -4q-119 -3 -187 -21.5t-105.5 -47t-59 -72t-21.5 -105.5q0 -75 48.5 -122t125.5 -47q97 0 175 41.5t129 108.5t67 144z" />
    <glyph glyph-name="b" unicode="b" 
d="M744 1102q157 0 244.5 -94.5t87.5 -259.5q0 -203 -61.5 -393.5t-173 -282.5t-284.5 -92q-123 0 -200 52t-109 146h-3q-7 -37 -24 -106t-19 -72h-173q5 15 19.5 82t29.5 141l245 1261h180l-83 -423q-8 -46 -34 -140h4q73 95 154 138t200 43zM692 963q-99 0 -169.5 -40.5
t-119.5 -122t-77 -204t-28 -219.5q0 -125 63.5 -194.5t176.5 -69.5q124 0 196 75.5t113 240t41 287.5t-47 185t-149 62z" />
    <glyph glyph-name="c" unicode="c" horiz-adv-x="1024" 
d="M469 122q205 0 289 230l156 -49q-121 -323 -449 -323q-192 0 -295 109t-103 306q0 200 72.5 372t192 253.5t293.5 81.5q169 0 267.5 -85t108.5 -233l-177 -25q-6 97 -60 149.5t-145 52.5q-126 0 -204 -67.5t-121 -214.5t-43 -290q0 -267 218 -267z" />
    <glyph glyph-name="d" unicode="d" 
d="M401 -21q-157 0 -244.5 94.5t-87.5 259.5q0 203 61.5 393.5t173 282.5t284.5 92q123 0 200.5 -52t109.5 -146h5l28 162l82 419h180l-245 -1261q-29 -141 -38 -223h-172q0 51 21 160h-5q-73 -95 -154 -138t-199 -43zM453 118q99 0 169.5 40.5t119.5 122t77 204t28 219.5
q0 125 -63.5 194.5t-176.5 69.5q-122 0 -193 -72.5t-114 -237t-43 -293.5q0 -123 47 -185t149 -62z" />
    <glyph glyph-name="e" unicode="e" 
d="M256 503q-6 -35 -9 -113q0 -133 66.5 -204t200.5 -71q97 0 176 48t123 131l138 -63q-73 -131 -185.5 -191t-272.5 -60q-201 0 -312.5 111.5t-111.5 313.5q0 201 71 360.5t200 248t290 88.5q205 0 319 -103t114 -291q0 -105 -24 -205h-783zM880 641l4 72q0 124 -64.5 190
t-185.5 66q-134 0 -225.5 -85.5t-128.5 -242.5h600z" />
    <glyph glyph-name="f" unicode="f" horiz-adv-x="569" 
d="M434 951l-185 -951h-180l185 951h-152l26 131h152l23 122q23 112 60.5 167.5t99.5 84t159 28.5q74 0 124 -12l-26 -137l-45 6l-46 2q-63 0 -96.5 -32.5t-53.5 -131.5l-19 -97h211l-26 -131h-211z" />
    <glyph glyph-name="g" unicode="g" 
d="M397 -425q-339 0 -393 252l163 42q35 -157 234 -157q142 0 220 73.5t110 241.5l34 174h-2q-62 -89 -109.5 -128t-107 -60t-136.5 -21q-153 0 -246.5 100.5t-93.5 266.5q0 133 37.5 287t102.5 256t158 150.5t220 48.5q121 0 204.5 -57t107.5 -147h2q7 37 25 106.5t23 78.5
h171l-19 -82l-30 -142l-161 -827q-48 -242 -172 -349t-342 -107zM259 373q0 -121 52.5 -184.5t154.5 -63.5q108 0 196 78.5t136.5 215.5t48.5 285q0 125 -64 194.5t-176 69.5q-90 0 -150 -37t-101 -116t-69 -210.5t-28 -231.5z" />
    <glyph glyph-name="h" unicode="h" 
d="M383 897q83 115 166.5 159.5t198.5 44.5q148 0 222.5 -73t74.5 -211q0 -64 -21 -164l-127 -653h-181l126 645q18 88 18 150q0 167 -179 167q-126 0 -222 -96t-128 -260l-118 -606h-179l288 1484h180l-75 -386q-18 -100 -47 -201h3z" />
    <glyph glyph-name="i" unicode="i" horiz-adv-x="455" 
d="M287 1312l34 172h180l-34 -172h-180zM33 0l210 1082h180l-211 -1082h-179z" />
    <glyph glyph-name="j" unicode="j" horiz-adv-x="455" 
d="M289 1312l33 172h180l-33 -172h-180zM-100 -425q-56 0 -129 14l23 136q52 -8 83 -8q59 0 89 42t47 134l231 1189h180l-237 -1216q-31 -158 -101 -224.5t-186 -66.5z" />
    <glyph glyph-name="k" unicode="k" horiz-adv-x="1024" 
d="M721 0l-268 502l-168 -124l-72 -378h-179l288 1484h180l-179 -917l204 190l361 325h222l-530 -465l336 -617h-195z" />
    <glyph glyph-name="l" unicode="l" horiz-adv-x="455" 
d="M33 0l288 1484h180l-289 -1484h-179z" />
    <glyph glyph-name="m" unicode="m" horiz-adv-x="1706" 
d="M660 0l124 634q25 125 25 174q0 75 -38 114.5t-124 39.5q-116 0 -202.5 -99t-113.5 -259l-118 -604h-179l166 851q20 95 39 231h170q0 -11 -10.5 -77.5t-17.5 -107.5h3q73 114 146.5 159t175.5 45q121 0 192 -59.5t85 -172.5q83 130 163.5 181t184.5 51q135 0 207.5 -73
t72.5 -211q0 -64 -21 -164l-127 -653h-178l124 634q25 125 25 174q0 75 -38 114.5t-124 39.5q-116 0 -202 -97.5t-114 -257.5l-118 -607h-178z" />
    <glyph glyph-name="n" unicode="n" 
d="M717 0l126 645q18 88 18 150q0 167 -179 167q-126 0 -222 -96t-128 -260l-118 -606h-180l166 851q20 95 39 231h170q0 -11 -10.5 -77.5t-17.5 -107.5h3q83 115 166.5 159.5t198.5 44.5q148 0 222.5 -73t74.5 -211q0 -64 -21 -164l-127 -653h-181z" />
    <glyph glyph-name="o" unicode="o" 
d="M1074 683q0 -130 -40 -270.5t-114.5 -238t-182.5 -146t-246 -48.5q-196 0 -310 118t-114 321q4 204 74 362t194 239t307 81q210 0 321 -109.5t111 -308.5zM888 683q0 286 -248 286q-135 0 -216.5 -69.5t-126.5 -210.5t-45 -273q0 -148 64 -225.5t186 -77.5
q103 0 165.5 34.5t109.5 108t76.5 187.5t34.5 240z" />
    <glyph glyph-name="p" unicode="p" 
d="M554 -20q-123 0 -200.5 52t-109.5 146h-5q0 -11 -8.5 -65t-102.5 -538h-179l249 1286q23 111 35 221h167q0 -27 -6.5 -82.5t-10.5 -78.5h4q73 95 154 138t200 43q157 0 244.5 -94.5t87.5 -259.5q0 -203 -61.5 -393.5t-173 -282.5t-284.5 -92zM689 963q-99 0 -169.5 -40.5
t-119.5 -122t-77 -204t-28 -219.5q0 -125 63.5 -194.5t176.5 -69.5q124 0 196 75.5t113 240t41 287.5t-47 185t-149 62z" />
    <glyph glyph-name="q" unicode="q" 
d="M401 -21q-157 0 -244.5 94.5t-87.5 259.5q0 203 61.5 393.5t173 282.5t284.5 92q123 0 200.5 -52t109.5 -146h5q11 54 27 118t22 75h173q-23 -78 -65 -295l-238 -1226h-180l85 439l32 146h-4q-73 -95 -154 -138t-200 -43zM453 118q99 0 169.5 40.5t119.5 122t77 204
t28 219.5q0 125 -63.5 194.5t-176.5 69.5q-122 0 -193 -72.5t-114 -237t-43 -293.5q0 -123 47 -185t149 -62z" />
    <glyph glyph-name="r" unicode="r" horiz-adv-x="682" 
d="M718 938q-44 13 -90 13q-105 0 -189.5 -110t-114.5 -277l-110 -564h-180l162 830l25 138l18 114h170l-35 -221h4q66 133 130 187t148 54q46 0 95 -14z" />
    <glyph glyph-name="s" unicode="s" horiz-adv-x="1024" 
d="M907 317q0 -162 -124 -249.5t-358 -87.5q-174 0 -276.5 58.5t-143.5 184.5l147 56q33 -88 102.5 -128t186.5 -40q143 0 217 48.5t74 141.5q0 62 -51 103.5t-216 92.5q-128 42 -192 82t-98 93.5t-34 124.5q0 145 116 223.5t327 78.5q354 0 398 -255l-163 -25
q-22 79 -83 114t-164 35q-124 0 -190.5 -39.5t-66.5 -111.5q0 -42 21 -71t60.5 -51.5t182.5 -67.5q127 -40 191.5 -81t100.5 -97t36 -132z" />
    <glyph glyph-name="t" unicode="t" horiz-adv-x="569" 
d="M275 -20q-85 0 -133.5 51t-48.5 135q0 55 15 130l126 655h-125l26 131h127l105 242h120l-47 -242h200l-26 -131h-200l-125 -645q-12 -60 -12 -95q0 -88 90 -88q42 0 100 14l-19 -133q-99 -24 -173 -24z" />
    <glyph glyph-name="u" unicode="u" 
d="M415 1082l-126 -645q-18 -88 -18 -150q0 -167 179 -167q126 0 222 96t128 260l118 606h180l-166 -851q-20 -95 -39 -231h-170q0 11 10.5 77.5t17.5 107.5h-3q-83 -115 -166.5 -159.5t-198.5 -44.5q-148 0 -222.5 73t-74.5 211q0 64 21 164l127 653h181z" />
    <glyph glyph-name="v" unicode="v" horiz-adv-x="1024" 
d="M507 0h-213l-182 1082h187l101 -704q9 -68 19 -184l4 -53l26 53q45 94 93 182l384 706h196z" />
    <glyph glyph-name="w" unicode="w" horiz-adv-x="1479" 
d="M1068 0h-209l-37 698l-6 236q-30 -75 -54 -131.5t-360 -802.5h-208l-92 1082h178l40 -735l7 -198l81 190l341 743h193l44 -743q6 -108 6 -190q33 79 421 933h176z" />
    <glyph glyph-name="x" unicode="x" horiz-adv-x="1024" 
d="M706 0l-209 444l-380 -444h-199l492 556l-264 526h189l193 -421l350 421h206l-469 -524l281 -558h-190z" />
    <glyph glyph-name="y" unicode="y" horiz-adv-x="1024" 
d="M16 -425q-72 0 -132 14l31 134q45 -8 77 -8q95 0 167.5 64t142.5 186l27 47l-217 1070h183l112 -598q15 -80 28 -170.5t14 -117.5q10 22 26 54t453 832h199l-626 -1082q-111 -193 -178.5 -270.5t-141 -116t-165.5 -38.5z" />
    <glyph glyph-name="z" unicode="z" horiz-adv-x="1024" 
d="M-12 0l23 137l742 806h-566l25 139h784l-24 -137l-742 -806h621l-25 -139h-838z" />
    <glyph glyph-name="braceleft" unicode="{" horiz-adv-x="684" 
d="M366 -425q-111 0 -176.5 66.5t-65.5 183.5q0 62 10 117l56 287q9 44 9 77q0 83 -46.5 119.5t-131.5 40.5l25 127q110 4 174 61.5t87 174.5l70 362q28 143 103.5 218t217.5 75h135l-25 -129h-63q-89 0 -137.5 -47t-72.5 -168l-69 -356q-19 -95 -84.5 -162.5t-158.5 -89.5
v-2q69 -17 109.5 -67t40.5 -128q0 -27 -6 -59l-61 -319q-5 -24 -8.5 -64.5t-4.5 -57.5v-6q0 -56 34.5 -90.5t111.5 -34.5h48l-25 -129h-96z" />
    <glyph glyph-name="bar" unicode="|" horiz-adv-x="532" 
d="M213 -454v1938h166v-1938h-166z" />
    <glyph glyph-name="braceright" unicode="}" horiz-adv-x="684" 
d="M308 1484q111 0 176.5 -66.5t65.5 -183.5q0 -62 -10 -117l-56 -287q-9 -43 -9 -77q0 -83 46.5 -119.5t131.5 -40.5l-25 -127q-110 -4 -174 -61.5t-87 -174.5l-70 -362q-28 -143 -103.5 -218t-217.5 -75h-135l25 129h63q89 0 137.5 47t72.5 168l69 356q19 95 84.5 162.5
t158.5 89.5v2q-69 17 -109.5 67t-40.5 128q0 28 6 59l61 319q5 24 8.5 64.5t4.5 57.5v6q0 56 -34.5 90.5t-111.5 34.5h-48l25 129h96z" />
    <glyph glyph-name="asciitilde" unicode="~" horiz-adv-x="1196" 
d="M874 553q-69 0 -141.5 22t-145.5 48q-129 45 -217 45q-67 0 -125 -20.5t-123 -67.5v143q111 84 263 84q102 0 235 -46q147 -51 190.5 -61t79.5 -10q130 0 244 92v-149q-60 -42 -117.5 -61t-142.5 -19z" />
    <glyph glyph-name="uni00A0" unicode="&#xa0;" horiz-adv-x="569" 
 />
    <glyph glyph-name="exclamdown" unicode="&#xa1;" horiz-adv-x="682" 
d="M284 686h148l-172 -1012h-196zM536 1083l-40 -201h-194l40 201h194z" />
    <glyph glyph-name="cent" unicode="&#xa2;" 
d="M560 278q205 0 289 230l156 -49q-116 -308 -417 -323l-32 -167h-124l34 173q-149 22 -228.5 128.5t-79.5 280.5q0 136 38 272.5t103 230.5t158 145.5t226 57.5l28 152h124l-29 -158q131 -19 204.5 -101t81.5 -210l-177 -25q-6 97 -60 149.5t-145 52.5q-126 0 -204 -67.5
t-121 -214.5t-43 -290q0 -267 218 -267z" />
    <glyph glyph-name="sterling" unicode="&#xa3;" 
d="M1075 310q-37 -152 -137 -231t-250 -79h-700l29 154q97 46 155.5 124.5t82.5 202.5l28 144h-186l25 129h186l55 280q40 205 152.5 300.5t300.5 95.5q148 0 243.5 -62.5t118.5 -167.5l-164 -50q-20 64 -76 98t-129 34q-114 0 -177.5 -57.5t-87.5 -182.5l-56 -288h408
l-25 -129h-408l-27 -147q-20 -111 -82.5 -197t-151.5 -128h464q103 0 167.5 42.5t90.5 138.5z" />
    <glyph glyph-name="currency" unicode="&#xa4;" 
d="M165 684q0 138 78 252l-100 100l104 103l99 -101q114 82 254 82q137 0 251 -80l97 97l104 -105l-96 -96q80 -117 80 -252q0 -138 -82 -252l100 -100l-102 -105l-101 101q-114 -78 -251 -78q-143 0 -252 80l-105 -105l-102 105l102 102q-78 114 -78 252zM319 686
q0 -114 82 -197t199 -83q114 0 197 81t83 199q0 116 -82.5 198.5t-197.5 82.5q-117 0 -199 -83.5t-82 -197.5z" />
    <glyph glyph-name="yen" unicode="&#xa5;" 
d="M745 709h321l-24 -125h-383l-30 -154h383l-25 -127h-383l-59 -303h-178l59 303h-381l25 127h381l32 154h-383l24 125h320l-285 700h193l246 -647l500 647h205z" />
    <glyph glyph-name="brokenbar" unicode="&#xa6;" horiz-adv-x="532" 
d="M213 707v778h166v-778h-166zM213 -455v779h166v-779h-166z" />
    <glyph glyph-name="section" unicode="&#xa7;" 
d="M1010 673q0 -224 -274 -285q132 -83 132 -223q0 -162 -124 -249.5t-361 -87.5q-171 0 -274 58.5t-143 184.5l147 56q33 -88 102.5 -128t186.5 -40q143 0 217 48.5t74 141.5q0 63 -53 106.5t-213 92.5q-325 100 -325 325q0 110 70.5 182t205.5 102q-134 85 -134 225
q0 145 117 223.5t334 78.5q346 0 390 -255l-163 -25q-41 149 -234 149q-270 0 -270 -163q0 -55 53.5 -98t208.5 -93q182 -57 256 -136.5t74 -189.5zM276 688q0 -69 61.5 -121.5t212.5 -98.5q132 5 208.5 55.5t76.5 138.5q0 51 -28.5 88.5t-82.5 66.5t-191 69
q-117 -6 -187 -60t-70 -138z" />
    <glyph glyph-name="dieresis" unicode="&#xa8;" horiz-adv-x="682" 
d="M521 1219l35 184h173l-35 -184h-173zM137 1219l35 184h175l-35 -184h-175z" />
    <glyph glyph-name="copyright" unicode="&#xa9;" horiz-adv-x="1509" 
d="M1509 707q0 -193 -96.5 -361.5t-265 -265t-361.5 -96.5q-197 0 -366.5 100.5t-263 267t-93.5 355.5q0 193 97 361t265 265t361 97q194 0 362.5 -97.5t264.5 -264.5t96 -361zM1417 707q0 168 -84.5 313.5t-231 230t-315.5 84.5q-168 0 -314 -84.5t-230 -230.5t-84 -313
q0 -169 84.5 -315t229.5 -230t314 -84q170 0 316.5 84.5t230.5 230t84 314.5zM797 279q-188 0 -292 113t-104 317q0 203 100 313.5t289 110.5q244 0 340 -209l-114 -33q-32 69 -90 103t-134 34q-127 0 -194.5 -80.5t-67.5 -238.5q0 -155 71 -240.5t196 -85.5
q78 0 135.5 37.5t97.5 118.5l115 -35q-62 -121 -146.5 -173t-201.5 -52z" />
    <glyph glyph-name="ordfeminine" unicode="&#xaa;" horiz-adv-x="758" 
d="M723 657q-66 0 -101.5 29.5t-35.5 78.5l4 40h-4q-66 -85 -131 -119.5t-144 -34.5q-101 0 -161.5 56t-60.5 151q0 249 364 254l179 4q18 90 18 113q0 102 -127 102q-152 0 -184 -135l-132 17q58 219 318 219q127 0 196.5 -53.5t69.5 -145.5q0 -39 -10 -84l-53 -275
q-6 -31 -6 -53q0 -55 48 -55q20 0 44 8l-15 -104q-37 -13 -76 -13zM614 1024l-139 -4q-123 -3 -177.5 -41.5t-54.5 -113.5q0 -47 29 -75t80 -28q89 0 162 62.5t90 147.5z" />
    <glyph glyph-name="guillemotleft" unicode="&#xab;" 
d="M818 141l-267 365l12 63l410 371h158l-6 -37l-410 -372l268 -367l-5 -23h-160zM341 141l-265 365l12 63l408 371h157l-6 -38l-407 -372l265 -367l-5 -22h-159z" />
    <glyph glyph-name="logicalnot" unicode="&#xac;" horiz-adv-x="1196" 
d="M950 180v428h-850v146h995v-574h-145z" />
    <glyph glyph-name="uni00AD" unicode="&#xad;" horiz-adv-x="682" 
d="M105 464l31 160h500l-31 -160h-500z" />
    <glyph glyph-name="registered" unicode="&#xae;" horiz-adv-x="1509" 
d="M1509 707q0 -193 -96.5 -361.5t-265 -265t-361.5 -96.5q-197 0 -366.5 100.5t-263 267t-93.5 355.5q0 193 97 361t265 265t361 97q194 0 362.5 -97.5t264.5 -264.5t96 -361zM1417 707q0 168 -84.5 313.5t-231 230t-315.5 84.5q-168 0 -314 -84.5t-230 -230.5t-84 -313
q0 -169 84.5 -315t229.5 -230t314 -84q170 0 316.5 84.5t230.5 230t84 314.5zM987 289l-199 336h-161v-336h-127v831h307q142 0 217.5 -63t75.5 -174q0 -102 -52 -163.5t-137 -80.5l221 -350h-145zM973 881q0 69 -47.5 105t-128.5 36h-170v-301h182q80 0 122 42.5t42 117.5z
" />
    <glyph glyph-name="overscore" unicode="&#xaf;" horiz-adv-x="1131" 
d="M1148 1503h-1165v117h1165v-117z" />
    <glyph glyph-name="degree" unicode="&#xb0;" horiz-adv-x="819" 
d="M770 1145q0 -119 -84.5 -202t-202.5 -83t-202.5 84t-84.5 201t83.5 201t203.5 84t203.5 -83t83.5 -202zM661 1145q0 76 -51.5 128t-126.5 52t-126.5 -53t-51.5 -127t52.5 -127t125.5 -53q74 0 126 52.5t52 127.5z" />
    <glyph glyph-name="plusminus" unicode="&#xb1;" horiz-adv-x="1124" 
d="M636 680v-395h-147v395h-424v145h424v394h147v-394h424v-145h-424zM65 0v145h995v-145h-995z" />
    <glyph glyph-name="twosuperior" unicode="&#xb2;" horiz-adv-x="682" 
d="M30 563l18 103q30 48 68.5 87.5t84.5 74.5t150 97q131 77 171.5 111t62 71.5t21.5 84.5q0 51 -34 87t-99 36q-70 0 -120 -39t-64 -102l-125 15q29 114 109.5 173t206.5 59q119 0 190.5 -60t71.5 -155q0 -68 -30.5 -123t-84 -102t-200.5 -133q-97 -56 -147.5 -94.5
t-76.5 -77.5h448l-20 -113h-601z" />
    <glyph glyph-name="threesuperior" unicode="&#xb3;" horiz-adv-x="682" 
d="M332 1049h57q97 0 149 41.5t52 113.5q0 48 -33 79.5t-90 31.5q-68 0 -116.5 -35t-67.5 -100l-125 25q67 216 319 216q111 0 181 -56.5t70 -146.5q0 -179 -218 -223v-2q73 -13 118 -60.5t45 -115.5q0 -121 -89 -193.5t-234 -72.5q-261 0 -297 234l129 16q9 -72 54.5 -109
t119.5 -37q86 0 133.5 44.5t47.5 120.5q0 54 -44 87t-121 33h-61z" />
    <glyph glyph-name="acute" unicode="&#xb4;" horiz-adv-x="682" 
d="M175 1201l3 20l253 287h217l-5 -29l-374 -278h-94z" />
    <glyph glyph-name="mu1" unicode="&#xb5;" horiz-adv-x="1180" 
d="M-1 -425l293 1507h181l-134 -686q-11 -64 -11 -101q0 -176 162 -176q112 0 194.5 95t110.5 258l118 610h180l-157 -807q-9 -41 -9 -82q0 -72 57 -72q12 0 56 8l-22 -129q-72 -20 -123 -20q-74 0 -105 48.5t-31 140.5h-2q-129 -189 -309 -189q-62 0 -107 21t-68 58
l-94 -484h-180z" />
    <glyph glyph-name="paragraph" unicode="&#xb6;" horiz-adv-x="1100" 
d="M948 1307v-1571h-112v1571h-217v-1571h-113v958q-168 0 -265 92.5t-97 262.5q0 169 98.5 264.5t271.5 95.5h563v-102h-129z" />
    <glyph glyph-name="middot" unicode="&#xb7;" horiz-adv-x="682" 
 />
    <glyph glyph-name="cedilla" unicode="&#xb8;" horiz-adv-x="682" 
d="M318 -96q81 -5 121.5 -41t40.5 -95q0 -193 -303 -193q-50 0 -106 7l21 91q48 -6 88 -6q91 0 128.5 22t37.5 67q0 72 -119 72q-44 0 -58 -2l101 174h107z" />
    <glyph glyph-name="onesuperior" unicode="&#xb9;" horiz-adv-x="682" 
d="M61 563l20 107h211l118 609l-229 -138l26 131l237 137h123l-144 -739h215l-21 -107h-556z" />
    <glyph glyph-name="ordmasculine" unicode="&#xba;" horiz-adv-x="748" 
d="M403 651q-145 0 -223.5 78.5t-78.5 220.5q0 59 13 128q68 354 406 354q145 0 223.5 -78.5t78.5 -220.5q0 -59 -13 -128q-68 -354 -406 -354zM513 1325q-95 0 -149 -47.5t-85 -150.5t-31 -189q0 -180 160 -180q97 0 152 49.5t86.5 156.5t31.5 190q0 94 -43.5 132.5
t-121.5 38.5z" />
    <glyph glyph-name="guillemotright" unicode="&#xbb;" 
d="M640 141h-158l7 39l410 367l-264 372l4 21h156l266 -371l-12 -63zM165 141h-160l7 39l410 367l-264 372l4 21h158l263 -371l-12 -63z" />
    <glyph glyph-name="onequarter" unicode="&#xbc;" horiz-adv-x="1708" 
d="M96 563l20 107h211l118 609l-229 -138l26 131l237 137h123l-144 -739h215l-21 -107h-556zM427 0h-153l1150 1409h154zM1437 179l-35 -178h-131l35 178h-405l21 111l484 557h161l-108 -555h125l-22 -113h-125zM1412 714l-108 -135l-245 -287h269l63 322z" />
    <glyph glyph-name="onehalf" unicode="&#xbd;" horiz-adv-x="1708" 
d="M47 563l20 107h211l118 609l-229 -138l26 131l237 137h123l-144 -739h215l-21 -107h-556zM377 0h-153l1150 1409h154zM937 1l18 103q30 48 68.5 87.5t84.5 74.5t150 97q131 77 171.5 111t62 71.5t21.5 84.5q0 51 -34 87t-99 36q-70 0 -120 -39t-64 -102l-125 15
q29 114 109.5 173t206.5 59q119 0 190.5 -60t71.5 -155q0 -68 -30.5 -123t-84 -102t-200.5 -133q-97 -56 -147.5 -94.5t-76.5 -77.5h448l-20 -113h-601z" />
    <glyph glyph-name="threequarters" unicode="&#xbe;" horiz-adv-x="1708" 
d="M415 1049h57q97 0 149 41.5t52 113.5q0 48 -33 79.5t-90 31.5q-68 0 -116.5 -35t-67.5 -100l-125 25q67 216 319 216q111 0 181 -56.5t70 -146.5q0 -179 -218 -223v-2q73 -13 118 -60.5t45 -115.5q0 -121 -89 -193.5t-234 -72.5q-261 0 -297 234l129 16q9 -72 54.5 -109
t119.5 -37q86 0 133.5 44.5t47.5 120.5q0 54 -44 87t-121 33h-61zM427 0h-153l1150 1409h154zM1437 179l-35 -178h-131l35 178h-405l21 111l484 557h161l-108 -555h125l-22 -113h-125zM1412 714l-108 -135l-245 -287h269l63 322z" />
    <glyph glyph-name="questiondown" unicode="&#xbf;" horiz-adv-x="1251" 
d="M497 -347q-197 0 -314.5 100t-117.5 257q0 97 30.5 165.5t79 119t109 88t120.5 71.5q127 72 176 128t63 124h175q-13 -80 -48 -139.5t-87.5 -106.5t-186.5 -123q-105 -59 -151 -100.5t-69.5 -90.5t-23.5 -115q0 -98 73 -158t189 -60q140 0 231 70t129 192l165 -40
q-63 -195 -198.5 -288.5t-343.5 -93.5zM899 1083l-39 -201h-195l39 201h195z" />
    <glyph glyph-name="Agrave" unicode="&#xc0;" horiz-adv-x="1366" 
d="M1079 0l-75 412h-639l-240 -412h-208l848 1409h217l292 -1409h-195zM848 1265q-13 -26 -37 -69t-362 -635h527l-102 553zM943 1530l-293 217l5 29h207l173 -226l-3 -20h-89z" />
    <glyph glyph-name="Aacute" unicode="&#xc1;" horiz-adv-x="1366" 
d="M1079 0l-75 412h-639l-240 -412h-208l848 1409h217l292 -1409h-195zM848 1265q-13 -26 -37 -69t-362 -635h527l-102 553zM743 1530l3 20l261 226h207l-5 -29l-352 -217h-114z" />
    <glyph glyph-name="Acircumflex" unicode="&#xc2;" horiz-adv-x="1366" 
d="M1079 0l-75 412h-639l-240 -412h-208l848 1409h217l292 -1409h-195zM848 1265q-13 -26 -37 -69t-362 -635h527l-102 553zM1197 1550l-4 -20h-95l-192 139h-2l-259 -139h-113l4 20l280 240h204z" />
    <glyph glyph-name="Atilde" unicode="&#xc3;" horiz-adv-x="1366" 
d="M1079 0l-75 412h-639l-240 -412h-208l848 1409h217l292 -1409h-195zM848 1265q-13 -26 -37 -69t-362 -635h527l-102 553zM1037 1530q-42 0 -80 20t-72.5 44.5t-66 44.5t-62.5 20q-46 0 -77 -29.5t-56 -99.5h-100q47 152 107.5 210t143.5 58q44 0 82 -20t72 -44.5
t65 -44.5t61 -20q91 0 132 129h102q-35 -109 -67 -159.5t-77 -79.5t-107 -29z" />
    <glyph glyph-name="Adieresis" unicode="&#xc4;" horiz-adv-x="1366" 
d="M1079 0l-75 412h-639l-240 -412h-208l848 1409h217l292 -1409h-195zM848 1265q-13 -26 -37 -69t-362 -635h527l-102 553zM990 1530l35 184h173l-35 -184h-173zM606 1530l35 184h175l-35 -184h-175z" />
    <glyph glyph-name="Aring" unicode="&#xc5;" horiz-adv-x="1366" 
d="M1061 0l-75 412h-639l-240 -412h-208l848 1409h217l292 -1409h-195zM830 1265q-13 -26 -37 -69t-362 -635h527l-102 553zM1100 1546q0 -100 -71 -171t-171 -71t-171 71t-71 171q0 101 71 171t171 70q99 0 170.5 -70.5t71.5 -170.5zM992 1546q0 58 -38 96t-96 38
q-59 0 -97 -39.5t-38 -94.5t38 -96t97 -41q58 0 96 40t38 97z" />
    <glyph glyph-name="AE" unicode="&#xc6;" horiz-adv-x="2048" 
d="M863 0l81 412h-543l-279 -412h-203l959 1409h1189l-30 -156h-739l-88 -452h679l-30 -154h-679l-95 -491h780l-31 -156h-971zM1109 1262h-151l-136 -216l-322 -485h473z" />
    <glyph glyph-name="Ccedilla" unicode="&#xc7;" horiz-adv-x="1479" 
d="M1358 337q-126 -188 -286 -272.5t-372 -84.5q-181 0 -314.5 72.5t-203 206.5t-69.5 310q0 246 105 445t291.5 307.5t416.5 108.5q217 0 366.5 -90.5t197.5 -254.5l-180 -55q-36 112 -139.5 178t-254.5 66q-184 0 -324 -88.5t-215 -249t-75 -370.5q0 -200 109 -315.5
t302 -115.5q148 0 276 73.5t226 217.5zM708 -96q81 -5 121.5 -41t40.5 -95q0 -193 -303 -193q-50 0 -106 7l21 91q48 -6 88 -6q91 0 128.5 22t37.5 67q0 72 -119 72q-44 0 -58 -2l101 174h107z" />
    <glyph glyph-name="Egrave" unicode="&#xc8;" horiz-adv-x="1366" 
d="M63 0l273 1409h1049l-30 -156h-858l-88 -452h798l-30 -154h-798l-95 -491h899l-30 -156h-1090zM937 1530l-293 217l5 29h207l173 -226l-3 -20h-89z" />
    <glyph glyph-name="Eacute" unicode="&#xc9;" horiz-adv-x="1366" 
d="M63 0l273 1409h1049l-30 -156h-858l-88 -452h798l-30 -154h-798l-95 -491h899l-30 -156h-1090zM727 1530l3 20l261 226h207l-5 -29l-352 -217h-114z" />
    <glyph glyph-name="Ecircumflex" unicode="&#xca;" horiz-adv-x="1366" 
d="M63 0l273 1409h1049l-30 -156h-858l-88 -452h798l-30 -154h-798l-95 -491h899l-30 -156h-1090zM1206 1550l-4 -20h-95l-192 139h-2l-259 -139h-113l4 20l280 240h204z" />
    <glyph glyph-name="Edieresis" unicode="&#xcb;" horiz-adv-x="1366" 
d="M63 0l273 1409h1049l-30 -156h-858l-88 -452h798l-30 -154h-798l-95 -491h899l-30 -156h-1090zM977 1530l35 184h173l-35 -184h-173zM593 1530l35 184h175l-35 -184h-175z" />
    <glyph glyph-name="Igrave" unicode="&#xcc;" horiz-adv-x="569" 
d="M81 0l274 1409h191l-274 -1409h-191zM504 1530l-293 217l5 29h207l173 -226l-3 -20h-89z" />
    <glyph glyph-name="Iacute" unicode="&#xcd;" horiz-adv-x="569" 
d="M81 0l274 1409h191l-274 -1409h-191zM365 1530l3 20l261 226h207l-5 -29l-352 -217h-114z" />
    <glyph glyph-name="Icircumflex" unicode="&#xce;" horiz-adv-x="569" 
d="M81 0l274 1409h191l-274 -1409h-191zM794 1550l-4 -20h-95l-192 139h-2l-259 -139h-113l4 20l280 240h204z" />
    <glyph glyph-name="Idieresis" unicode="&#xcf;" horiz-adv-x="569" 
d="M81 0l274 1409h191l-274 -1409h-191zM571 1530l35 184h173l-35 -184h-173zM187 1530l35 184h175l-35 -184h-175z" />
    <glyph glyph-name="Eth" unicode="&#xd0;" horiz-adv-x="1479" 
d="M764 1409q312 0 490.5 -164.5t178.5 -453.5q0 -234 -98.5 -412.5t-289 -278.5t-433.5 -100h-549l125 647h-154l30 154h154l118 608h428zM409 801h406l-30 -154h-406l-96 -494h304q195 0 344 77.5t228.5 223t79.5 339.5q0 219 -126 341t-353 122h-262z" />
    <glyph glyph-name="Ntilde" unicode="&#xd1;" horiz-adv-x="1479" 
d="M987 0l-531 1210q-22 -171 -42 -267l-181 -943h-170l273 1409h212l534 -1215q26 189 45 284l181 931h172l-273 -1409h-220zM1085 1530q-42 0 -80 20t-72.5 44.5t-66 44.5t-62.5 20q-46 0 -77 -29.5t-56 -99.5h-100q47 152 107.5 210t143.5 58q44 0 82 -20t72 -44.5
t65 -44.5t61 -20q91 0 132 129h102q-35 -109 -67 -159.5t-77 -79.5t-107 -29z" />
    <glyph glyph-name="Ograve" unicode="&#xd2;" horiz-adv-x="1593" 
d="M938 1430q277 0 437.5 -157t160.5 -422q-5 -268 -112 -463.5t-293 -301.5t-422 -106q-284 0 -441 157.5t-157 435.5q0 239 105.5 439.5t294.5 309t427 108.5zM929 1276q-200 0 -339.5 -89t-213.5 -266t-74 -358q0 -209 106.5 -318.5t309.5 -109.5q197 0 335.5 86.5
t215 259.5t76.5 366q0 207 -108.5 318t-307.5 111zM970 1530l-293 217l5 29h207l173 -226l-3 -20h-89z" />
    <glyph glyph-name="Oacute" unicode="&#xd3;" horiz-adv-x="1593" 
d="M938 1430q277 0 437.5 -157t160.5 -422q-5 -268 -112 -463.5t-293 -301.5t-422 -106q-284 0 -441 157.5t-157 435.5q0 239 105.5 439.5t294.5 309t427 108.5zM929 1276q-200 0 -339.5 -89t-213.5 -266t-74 -358q0 -209 106.5 -318.5t309.5 -109.5q197 0 335.5 86.5
t215 259.5t76.5 366q0 207 -108.5 318t-307.5 111zM817 1530l3 20l261 226h207l-5 -29l-352 -217h-114z" />
    <glyph glyph-name="Ocircumflex" unicode="&#xd4;" horiz-adv-x="1593" 
d="M938 1430q277 0 437.5 -157t160.5 -422q-5 -268 -112 -463.5t-293 -301.5t-422 -106q-284 0 -441 157.5t-157 435.5q0 239 105.5 439.5t294.5 309t427 108.5zM929 1276q-200 0 -339.5 -89t-213.5 -266t-74 -358q0 -209 106.5 -318.5t309.5 -109.5q197 0 335.5 86.5
t215 259.5t76.5 366q0 207 -108.5 318t-307.5 111zM1265 1550l-4 -20h-95l-192 139h-2l-259 -139h-113l4 20l280 240h204z" />
    <glyph glyph-name="Otilde" unicode="&#xd5;" horiz-adv-x="1593" 
d="M938 1430q277 0 437.5 -157t160.5 -422q-5 -268 -112 -463.5t-293 -301.5t-422 -106q-284 0 -441 157.5t-157 435.5q0 239 105.5 439.5t294.5 309t427 108.5zM929 1276q-200 0 -339.5 -89t-213.5 -266t-74 -358q0 -209 106.5 -318.5t309.5 -109.5q197 0 335.5 86.5
t215 259.5t76.5 366q0 207 -108.5 318t-307.5 111zM1136 1530q-42 0 -80 20t-72.5 44.5t-66 44.5t-62.5 20q-46 0 -77 -29.5t-56 -99.5h-100q47 152 107.5 210t143.5 58q44 0 82 -20t72 -44.5t65 -44.5t61 -20q91 0 132 129h102q-35 -109 -67 -159.5t-77 -79.5t-107 -29z
" />
    <glyph glyph-name="Odieresis" unicode="&#xd6;" horiz-adv-x="1593" 
d="M938 1430q277 0 437.5 -157t160.5 -422q-5 -268 -112 -463.5t-293 -301.5t-422 -106q-284 0 -441 157.5t-157 435.5q0 239 105.5 439.5t294.5 309t427 108.5zM929 1276q-200 0 -339.5 -89t-213.5 -266t-74 -358q0 -209 106.5 -318.5t309.5 -109.5q197 0 335.5 86.5
t215 259.5t76.5 366q0 207 -108.5 318t-307.5 111zM1048 1530l35 184h173l-35 -184h-173zM664 1530l35 184h175l-35 -184h-175z" />
    <glyph glyph-name="multiply" unicode="&#xd7;" horiz-adv-x="1196" 
d="M172 330l354 354l-352 352l104 103l350 -353l350 351l105 -105l-350 -348l352 -352l-102 -105l-353 353l-356 -355z" />
    <glyph glyph-name="Oslash" unicode="&#xd8;" horiz-adv-x="1593" 
d="M1423 1205q103 -145 103 -354q-5 -268 -112 -463.5t-293 -301.5t-422 -106q-252 0 -405 124l-161 -157h-189l260 254q-103 149 -103 372q0 239 105.5 439.5t294.5 309t427 108.5q248 0 404 -127l167 163h192zM919 1276q-200 0 -339.5 -89t-213.5 -266t-74 -358
q0 -136 46 -231l870 850q-109 94 -289 94zM1335 847q0 133 -46 227l-870 -848q105 -91 289 -91q197 0 335.5 86.5t215 259.5t76.5 366z" />
    <glyph glyph-name="Ugrave" unicode="&#xd9;" horiz-adv-x="1479" 
d="M654 -20q-233 0 -367 120.5t-134 330.5q0 44 7.5 105.5t15.5 98.5l150 774h191l-162 -843q-17 -87 -17 -143q0 -136 87.5 -212t244.5 -76q384 0 461 406l168 868h190l-170 -879q-54 -273 -222 -411.5t-443 -138.5zM982 1530l-293 217l5 29h207l173 -226l-3 -20h-89z" />
    <glyph glyph-name="Uacute" unicode="&#xda;" horiz-adv-x="1479" 
d="M654 -20q-233 0 -367 120.5t-134 330.5q0 44 7.5 105.5t15.5 98.5l150 774h191l-162 -843q-17 -87 -17 -143q0 -136 87.5 -212t244.5 -76q384 0 461 406l168 868h190l-170 -879q-54 -273 -222 -411.5t-443 -138.5zM776 1530l3 20l261 226h207l-5 -29l-352 -217h-114z" />
    <glyph glyph-name="Ucircumflex" unicode="&#xdb;" horiz-adv-x="1479" 
d="M654 -20q-233 0 -367 120.5t-134 330.5q0 44 7.5 105.5t15.5 98.5l150 774h191l-162 -843q-17 -87 -17 -143q0 -136 87.5 -212t244.5 -76q384 0 461 406l168 868h190l-170 -879q-54 -273 -222 -411.5t-443 -138.5zM1249 1550l-4 -20h-95l-192 139h-2l-259 -139h-113l4 20
l280 240h204z" />
    <glyph glyph-name="Udieresis" unicode="&#xdc;" horiz-adv-x="1479" 
d="M654 -20q-233 0 -367 120.5t-134 330.5q0 44 7.5 105.5t15.5 98.5l150 774h191l-162 -843q-17 -87 -17 -143q0 -136 87.5 -212t244.5 -76q384 0 461 406l168 868h190l-170 -879q-54 -273 -222 -411.5t-443 -138.5zM1018 1530l35 184h173l-35 -184h-173zM634 1530l35 184
h175l-35 -184h-175z" />
    <glyph glyph-name="Yacute" unicode="&#xdd;" horiz-adv-x="1366" 
d="M672 0h-190l115 584l-384 825h196l306 -674l560 674h214l-704 -825zM702 1530l3 20l261 226h207l-5 -29l-352 -217h-114z" />
    <glyph glyph-name="Thorn" unicode="&#xde;" horiz-adv-x="1366" 
d="M254 0h-191l274 1409h191l-49 -252h327q237 0 369 -102t132 -287q0 -220 -152.5 -345.5t-416.5 -125.5h-424zM344 448h387q382 0 382 311q0 119 -79 182t-233 63h-349z" />
    <glyph glyph-name="germandbls" unicode="&#xdf;" horiz-adv-x="1251" 
d="M34 0l200 1027q47 237 177.5 347t350.5 110q177 0 283.5 -81t106.5 -207q0 -151 -155 -256q-96 -65 -125.5 -96t-29.5 -67q0 -40 31 -82.5t110 -115.5q140 -131 140 -271q0 -159 -108 -248t-301 -89q-86 0 -167.5 16t-129.5 39l56 143q116 -54 246 -54q110 0 169 49.5
t59 140.5q0 56 -32 107.5t-106 116.5q-73 63 -106 116.5t-33 110.5q0 76 38.5 133t114.5 102q82 48 117 92.5t35 102.5q0 69 -60 113t-162 44q-145 0 -227 -79.5t-114 -242.5l-198 -1021h-180z" />
    <glyph glyph-name="agrave" unicode="&#xe0;" 
d="M933 -10q-93 0 -135.5 38.5t-42.5 114.5l5 64h-6q-83 -126 -172 -176.5t-215 -50.5q-140 0 -227.5 84t-87.5 214q0 185 132.5 280t422.5 99l232 3q19 98 19 127q0 91 -53 134.5t-147 43.5q-119 0 -180 -42.5t-88 -129.5l-178 29q45 147 156.5 213.5t299.5 66.5
q171 0 270.5 -80t99.5 -215q0 -64 -19 -157l-74 -378q-11 -48 -11 -88q0 -73 81 -73q27 0 60 7l-14 -112q-66 -16 -128 -16zM815 536l-199 -4q-119 -3 -187 -21.5t-105.5 -47t-59 -72t-21.5 -105.5q0 -75 48.5 -122t125.5 -47q97 0 175 41.5t129 108.5t67 144zM753 1201
l-282 278l5 29h207l161 -287l-3 -20h-88z" />
    <glyph glyph-name="aacute" unicode="&#xe1;" 
d="M933 -10q-93 0 -135.5 38.5t-42.5 114.5l5 64h-6q-83 -126 -172 -176.5t-215 -50.5q-140 0 -227.5 84t-87.5 214q0 185 132.5 280t422.5 99l232 3q19 98 19 127q0 91 -53 134.5t-147 43.5q-119 0 -180 -42.5t-88 -129.5l-178 29q45 147 156.5 213.5t299.5 66.5
q171 0 270.5 -80t99.5 -215q0 -64 -19 -157l-74 -378q-11 -48 -11 -88q0 -73 81 -73q27 0 60 7l-14 -112q-66 -16 -128 -16zM815 536l-199 -4q-119 -3 -187 -21.5t-105.5 -47t-59 -72t-21.5 -105.5q0 -75 48.5 -122t125.5 -47q97 0 175 41.5t129 108.5t67 144zM540 1201
l3 20l253 287h217l-5 -29l-374 -278h-94z" />
    <glyph glyph-name="acircumflex" unicode="&#xe2;" 
d="M933 -10q-93 0 -135.5 38.5t-42.5 114.5l5 64h-6q-83 -126 -172 -176.5t-215 -50.5q-140 0 -227.5 84t-87.5 214q0 185 132.5 280t422.5 99l232 3q19 98 19 127q0 91 -53 134.5t-147 43.5q-119 0 -180 -42.5t-88 -129.5l-178 29q45 147 156.5 213.5t299.5 66.5
q171 0 270.5 -80t99.5 -215q0 -64 -19 -157l-74 -378q-11 -48 -11 -88q0 -73 81 -73q27 0 60 7l-14 -112q-66 -16 -128 -16zM815 536l-199 -4q-119 -3 -187 -21.5t-105.5 -47t-59 -72t-21.5 -105.5q0 -75 48.5 -122t125.5 -47q97 0 175 41.5t129 108.5t67 144zM1007 1221
l-4 -20h-92l-186 169h-2l-265 -169h-116l4 20l286 270h204z" />
    <glyph glyph-name="atilde" unicode="&#xe3;" 
d="M933 -10q-93 0 -135.5 38.5t-42.5 114.5l5 64h-6q-83 -126 -172 -176.5t-215 -50.5q-140 0 -227.5 84t-87.5 214q0 185 132.5 280t422.5 99l232 3q19 98 19 127q0 91 -53 134.5t-147 43.5q-119 0 -180 -42.5t-88 -129.5l-178 29q45 147 156.5 213.5t299.5 66.5
q171 0 270.5 -80t99.5 -215q0 -64 -19 -157l-74 -378q-11 -48 -11 -88q0 -73 81 -73q27 0 60 7l-14 -112q-66 -16 -128 -16zM815 536l-199 -4q-119 -3 -187 -21.5t-105.5 -47t-59 -72t-21.5 -105.5q0 -75 48.5 -122t125.5 -47q97 0 175 41.5t129 108.5t67 144zM843 1201
q-42 0 -80 18.5t-72.5 41t-66.5 41t-63 18.5q-100 0 -142 -119h-90q47 152 107.5 210t143.5 58q44 0 82 -18.5t72.5 -41t65.5 -41t61 -18.5q101 0 141 119h92q-35 -109 -67 -159.5t-77 -79.5t-107 -29z" />
    <glyph glyph-name="adieresis" unicode="&#xe4;" 
d="M933 -10q-93 0 -135.5 38.5t-42.5 114.5l5 64h-6q-83 -126 -172 -176.5t-215 -50.5q-140 0 -227.5 84t-87.5 214q0 185 132.5 280t422.5 99l232 3q19 98 19 127q0 91 -53 134.5t-147 43.5q-119 0 -180 -42.5t-88 -129.5l-178 29q45 147 156.5 213.5t299.5 66.5
q171 0 270.5 -80t99.5 -215q0 -64 -19 -157l-74 -378q-11 -48 -11 -88q0 -73 81 -73q27 0 60 7l-14 -112q-66 -16 -128 -16zM815 536l-199 -4q-119 -3 -187 -21.5t-105.5 -47t-59 -72t-21.5 -105.5q0 -75 48.5 -122t125.5 -47q97 0 175 41.5t129 108.5t67 144zM787 1219
l35 184h173l-35 -184h-173zM403 1219l35 184h175l-35 -184h-175z" />
    <glyph glyph-name="aring" unicode="&#xe5;" 
d="M933 -10q-93 0 -135.5 38.5t-42.5 114.5l5 64h-6q-83 -126 -172 -176.5t-215 -50.5q-140 0 -227.5 84t-87.5 214q0 185 132.5 280t422.5 99l232 3q19 98 19 127q0 91 -53 134.5t-147 43.5q-119 0 -180 -42.5t-88 -129.5l-178 29q45 147 156.5 213.5t299.5 66.5
q171 0 270.5 -80t99.5 -215q0 -64 -19 -157l-74 -378q-11 -48 -11 -88q0 -73 81 -73q27 0 60 7l-14 -112q-66 -16 -128 -16zM815 536l-199 -4q-119 -3 -187 -21.5t-105.5 -47t-59 -72t-21.5 -105.5q0 -75 48.5 -122t125.5 -47q97 0 175 41.5t129 108.5t67 144zM975 1410
q0 -100 -71 -171t-171 -71t-171 71t-71 171q0 101 71 171t171 70q99 0 170.5 -70.5t71.5 -170.5zM867 1410q0 58 -38 96t-96 38q-59 0 -97 -39.5t-38 -94.5t38 -96t97 -41q58 0 96 40t38 97z" />
    <glyph glyph-name="ae" unicode="&#xe6;" horiz-adv-x="1821" 
d="M989 503q-6 -35 -9 -113q0 -133 61.5 -204t182.5 -71q87 0 157.5 45.5t114.5 133.5l138 -63q-71 -132 -177 -191.5t-255 -59.5q-151 0 -246 70t-130 198q-97 -139 -217 -203.5t-262 -64.5q-95 0 -166.5 38t-110 106.5t-38.5 153.5q0 185 135.5 279.5t433.5 99.5l238 3
q19 98 19 127q0 178 -208 178q-124 0 -187.5 -42t-92.5 -130l-178 29q47 147 162.5 213.5t310.5 66.5q222 0 325 -158q124 158 345 158q195 0 303 -104t108 -290q0 -48 -7.5 -109.5t-15.5 -95.5h-734zM814 534l-206 -4q-147 -4 -227.5 -31t-119 -80.5t-38.5 -132.5
q0 -77 46.5 -123t124.5 -46q101 0 186.5 44.5t143 121t73.5 162.5zM1563 641l4 72q0 124 -59 190t-170 66q-123 0 -207 -85t-118 -243h550z" />
    <glyph glyph-name="ccedilla" unicode="&#xe7;" horiz-adv-x="1024" 
d="M469 122q205 0 289 230l156 -49q-121 -323 -449 -323q-192 0 -295 109t-103 306q0 200 72.5 372t192 253.5t293.5 81.5q169 0 267.5 -85t108.5 -233l-177 -25q-6 97 -60 149.5t-145 52.5q-126 0 -204 -67.5t-121 -214.5t-43 -290q0 -267 218 -267zM452 -96
q81 -5 121.5 -41t40.5 -95q0 -193 -303 -193q-50 0 -106 7l21 91q48 -6 88 -6q91 0 128.5 22t37.5 67q0 72 -119 72q-44 0 -58 -2l101 174h107z" />
    <glyph glyph-name="egrave" unicode="&#xe8;" 
d="M256 503q-6 -35 -9 -113q0 -133 66.5 -204t200.5 -71q97 0 176 48t123 131l138 -63q-73 -131 -185.5 -191t-272.5 -60q-201 0 -312.5 111.5t-111.5 313.5q0 201 71 360.5t200 248t290 88.5q205 0 319 -103t114 -291q0 -105 -24 -205h-783zM880 641l4 72q0 124 -64.5 190
t-185.5 66q-134 0 -225.5 -85.5t-128.5 -242.5h600zM710 1201l-282 278l5 29h207l161 -287l-3 -20h-88z" />
    <glyph glyph-name="eacute" unicode="&#xe9;" 
d="M256 503q-6 -35 -9 -113q0 -133 66.5 -204t200.5 -71q97 0 176 48t123 131l138 -63q-73 -131 -185.5 -191t-272.5 -60q-201 0 -312.5 111.5t-111.5 313.5q0 201 71 360.5t200 248t290 88.5q205 0 319 -103t114 -291q0 -105 -24 -205h-783zM880 641l4 72q0 124 -64.5 190
t-185.5 66q-134 0 -225.5 -85.5t-128.5 -242.5h600zM533 1201l3 20l253 287h217l-5 -29l-374 -278h-94z" />
    <glyph glyph-name="ecircumflex" unicode="&#xea;" 
d="M256 503q-6 -35 -9 -113q0 -133 66.5 -204t200.5 -71q97 0 176 48t123 131l138 -63q-73 -131 -185.5 -191t-272.5 -60q-201 0 -312.5 111.5t-111.5 313.5q0 201 71 360.5t200 248t290 88.5q205 0 319 -103t114 -291q0 -105 -24 -205h-783zM880 641l4 72q0 124 -64.5 190
t-185.5 66q-134 0 -225.5 -85.5t-128.5 -242.5h600zM1000 1221l-4 -20h-92l-186 169h-2l-265 -169h-116l4 20l286 270h204z" />
    <glyph glyph-name="edieresis" unicode="&#xeb;" 
d="M256 503q-6 -35 -9 -113q0 -133 66.5 -204t200.5 -71q97 0 176 48t123 131l138 -63q-73 -131 -185.5 -191t-272.5 -60q-201 0 -312.5 111.5t-111.5 313.5q0 201 71 360.5t200 248t290 88.5q205 0 319 -103t114 -291q0 -105 -24 -205h-783zM880 641l4 72q0 124 -64.5 190
t-185.5 66q-134 0 -225.5 -85.5t-128.5 -242.5h600zM762 1219l35 184h173l-35 -184h-173zM378 1219l35 184h175l-35 -184h-175z" />
    <glyph glyph-name="igrave" unicode="&#xec;" horiz-adv-x="569" 
d="M89 0l210 1082h180l-211 -1082h-179zM408 1201l-282 278l5 29h207l161 -287l-3 -20h-88z" />
    <glyph glyph-name="iacute" unicode="&#xed;" horiz-adv-x="569" 
d="M89 0l210 1082h180l-211 -1082h-179zM262 1201l3 20l253 287h217l-5 -29l-374 -278h-94z" />
    <glyph glyph-name="icircumflex" unicode="&#xee;" horiz-adv-x="569" 
d="M89 0l210 1082h180l-211 -1082h-179zM723 1221l-4 -20h-92l-186 169h-2l-265 -169h-116l4 20l286 270h204z" />
    <glyph glyph-name="idieresis" unicode="&#xef;" horiz-adv-x="569" 
d="M89 0l210 1082h180l-211 -1082h-179zM514 1219l35 184h173l-35 -184h-173zM130 1219l35 184h175l-35 -184h-175z" />
    <glyph glyph-name="eth" unicode="&#xf0;" 
d="M625 1328q-96 90 -195 156h176q77 -39 156 -102l263 102l-19 -108l-169 -67q117 -139 167 -278t50 -303q0 -210 -64.5 -391t-184.5 -266.5t-314 -85.5q-199 0 -311.5 113t-112.5 305q0 160 64.5 297.5t182.5 208t291 70.5q79 0 151.5 -29.5t107.5 -75.5
q-19 113 -63.5 211t-102.5 164l-273 -113l21 120zM603 846q-120 0 -196 -56t-116 -173.5t-40 -228.5q0 -130 63 -200t180 -70q94 0 159 34t109.5 104.5t70.5 183.5t26 195q0 55 -32.5 104t-91.5 78t-132 29z" />
    <glyph glyph-name="ntilde" unicode="&#xf1;" 
d="M717 0l126 645q18 88 18 150q0 167 -179 167q-126 0 -222 -96t-128 -260l-118 -606h-180l166 851q20 95 39 231h170q0 -11 -10.5 -77.5t-17.5 -107.5h3q83 115 166.5 159.5t198.5 44.5q148 0 222.5 -73t74.5 -211q0 -64 -21 -164l-127 -653h-181zM844 1201
q-42 0 -80 18.5t-72.5 41t-66.5 41t-63 18.5q-100 0 -142 -119h-90q47 152 107.5 210t143.5 58q44 0 82 -18.5t72.5 -41t65.5 -41t61 -18.5q101 0 141 119h92q-35 -109 -67 -159.5t-77 -79.5t-107 -29z" />
    <glyph glyph-name="ograve" unicode="&#xf2;" 
d="M1080 683q0 -130 -40 -270.5t-114.5 -238t-182.5 -146t-246 -48.5q-196 0 -310 118t-114 321q4 204 74 362t194 239t307 81q210 0 321 -109.5t111 -308.5zM894 683q0 286 -248 286q-135 0 -216.5 -69.5t-126.5 -210.5t-45 -273q0 -148 64 -225.5t186 -77.5
q103 0 165.5 34.5t109.5 108t76.5 187.5t34.5 240zM720 1201l-282 278l5 29h207l161 -287l-3 -20h-88z" />
    <glyph glyph-name="oacute" unicode="&#xf3;" 
d="M1080 683q0 -130 -40 -270.5t-114.5 -238t-182.5 -146t-246 -48.5q-196 0 -310 118t-114 321q4 204 74 362t194 239t307 81q210 0 321 -109.5t111 -308.5zM894 683q0 286 -248 286q-135 0 -216.5 -69.5t-126.5 -210.5t-45 -273q0 -148 64 -225.5t186 -77.5
q103 0 165.5 34.5t109.5 108t76.5 187.5t34.5 240zM533 1201l3 20l253 287h217l-5 -29l-374 -278h-94z" />
    <glyph glyph-name="ocircumflex" unicode="&#xf4;" 
d="M1080 683q0 -130 -40 -270.5t-114.5 -238t-182.5 -146t-246 -48.5q-196 0 -310 118t-114 321q4 204 74 362t194 239t307 81q210 0 321 -109.5t111 -308.5zM894 683q0 286 -248 286q-135 0 -216.5 -69.5t-126.5 -210.5t-45 -273q0 -148 64 -225.5t186 -77.5
q103 0 165.5 34.5t109.5 108t76.5 187.5t34.5 240zM1009 1221l-4 -20h-92l-186 169h-2l-265 -169h-116l4 20l286 270h204z" />
    <glyph glyph-name="otilde" unicode="&#xf5;" 
d="M1080 683q0 -130 -40 -270.5t-114.5 -238t-182.5 -146t-246 -48.5q-196 0 -310 118t-114 321q4 204 74 362t194 239t307 81q210 0 321 -109.5t111 -308.5zM894 683q0 286 -248 286q-135 0 -216.5 -69.5t-126.5 -210.5t-45 -273q0 -148 64 -225.5t186 -77.5
q103 0 165.5 34.5t109.5 108t76.5 187.5t34.5 240zM814 1201q-42 0 -80 18.5t-72.5 41t-66.5 41t-63 18.5q-100 0 -142 -119h-90q47 152 107.5 210t143.5 58q44 0 82 -18.5t72.5 -41t65.5 -41t61 -18.5q101 0 141 119h92q-35 -109 -67 -159.5t-77 -79.5t-107 -29z" />
    <glyph glyph-name="odieresis" unicode="&#xf6;" 
d="M1080 683q0 -130 -40 -270.5t-114.5 -238t-182.5 -146t-246 -48.5q-196 0 -310 118t-114 321q4 204 74 362t194 239t307 81q210 0 321 -109.5t111 -308.5zM894 683q0 286 -248 286q-135 0 -216.5 -69.5t-126.5 -210.5t-45 -273q0 -148 64 -225.5t186 -77.5
q103 0 165.5 34.5t109.5 108t76.5 187.5t34.5 240zM774 1219l35 184h173l-35 -184h-173zM390 1219l35 184h175l-35 -184h-175z" />
    <glyph glyph-name="divide" unicode="&#xf7;" horiz-adv-x="1124" 
d="M495 958v183h168v-183h-168zM82 608v146h995v-146h-995zM495 223v183h168v-183h-168z" />
    <glyph glyph-name="oslash" unicode="&#xf8;" horiz-adv-x="1251" 
d="M201 145q-76 109 -76 274q4 204 74 362t194 239t307 81q162 0 267 -67l70 82h167l-146 -169q74 -103 74 -264q0 -106 -26 -216q-110 -482 -557 -482q-154 0 -258 71l-80 -94h-167zM310 416q0 -73 15 -127l540 627q-63 53 -167 53q-135 0 -216.5 -69.5t-126.5 -210.5
t-45 -273zM946 683q0 66 -14 117l-540 -627q63 -55 168 -55q136 0 213.5 66.5t122 202t50.5 296.5z" />
    <glyph glyph-name="ugrave" unicode="&#xf9;" 
d="M415 1082l-126 -645q-18 -88 -18 -150q0 -167 179 -167q126 0 222 96t128 260l118 606h180l-166 -851q-20 -95 -39 -231h-170q0 11 10.5 77.5t17.5 107.5h-3q-83 -115 -166.5 -159.5t-198.5 -44.5q-148 0 -222.5 73t-74.5 211q0 64 21 164l127 653h181zM734 1201
l-282 278l5 29h207l161 -287l-3 -20h-88z" />
    <glyph glyph-name="uacute" unicode="&#xfa;" 
d="M415 1082l-126 -645q-18 -88 -18 -150q0 -167 179 -167q126 0 222 96t128 260l118 606h180l-166 -851q-20 -95 -39 -231h-170q0 11 10.5 77.5t17.5 107.5h-3q-83 -115 -166.5 -159.5t-198.5 -44.5q-148 0 -222.5 73t-74.5 211q0 64 21 164l127 653h181zM541 1201l3 20
l253 287h217l-5 -29l-374 -278h-94z" />
    <glyph glyph-name="ucircumflex" unicode="&#xfb;" 
d="M415 1082l-126 -645q-18 -88 -18 -150q0 -167 179 -167q126 0 222 96t128 260l118 606h180l-166 -851q-20 -95 -39 -231h-170q0 11 10.5 77.5t17.5 107.5h-3q-83 -115 -166.5 -159.5t-198.5 -44.5q-148 0 -222.5 73t-74.5 211q0 64 21 164l127 653h181zM1021 1221l-4 -20
h-92l-186 169h-2l-265 -169h-116l4 20l286 270h204z" />
    <glyph glyph-name="udieresis" unicode="&#xfc;" 
d="M415 1082l-126 -645q-18 -88 -18 -150q0 -167 179 -167q126 0 222 96t128 260l118 606h180l-166 -851q-20 -95 -39 -231h-170q0 11 10.5 77.5t17.5 107.5h-3q-83 -115 -166.5 -159.5t-198.5 -44.5q-148 0 -222.5 73t-74.5 211q0 64 21 164l127 653h181zM794 1219l35 184
h173l-35 -184h-173zM410 1219l35 184h175l-35 -184h-175z" />
    <glyph glyph-name="yacute" unicode="&#xfd;" horiz-adv-x="1024" 
d="M16 -425q-72 0 -132 14l31 134q45 -8 77 -8q95 0 167.5 64t142.5 186l27 47l-217 1070h183l112 -598q15 -80 28 -170.5t14 -117.5q10 22 26 54t453 832h199l-626 -1082q-111 -193 -178.5 -270.5t-141 -116t-165.5 -38.5zM503 1201l3 20l253 287h217l-5 -29l-374 -278h-94
z" />
    <glyph glyph-name="thorn" unicode="&#xfe;" 
d="M554 -20q-123 0 -200.5 52t-109.5 146h-5q-10 -86 -29 -180l-82 -423h-179l371 1909h180l-83 -423q-8 -46 -34 -140h4q73 95 154 138t200 43q157 0 244.5 -94.5t87.5 -259.5q0 -203 -61.5 -393.5t-173 -282.5t-284.5 -92zM689 963q-99 0 -169.5 -40.5t-119.5 -122
t-77 -204t-28 -219.5q0 -125 63.5 -194.5t176.5 -69.5q124 0 196 75.5t113 240t41 287.5t-47 185t-149 62z" />
    <glyph glyph-name="ydieresis" unicode="&#xff;" horiz-adv-x="1024" 
d="M16 -425q-72 0 -132 14l31 134q45 -8 77 -8q95 0 167.5 64t142.5 186l27 47l-217 1070h183l112 -598q15 -80 28 -170.5t14 -117.5q10 22 26 54t453 832h199l-626 -1082q-111 -193 -178.5 -270.5t-141 -116t-165.5 -38.5zM738 1219l35 184h173l-35 -184h-173zM354 1219
l35 184h175l-35 -184h-175z" />
    <glyph glyph-name="Amacron" unicode="&#x100;" horiz-adv-x="1366" 
d="M1061 0l-75 412h-639l-240 -412h-208l848 1409h217l292 -1409h-195zM830 1265q-13 -26 -37 -69t-362 -635h527l-102 553zM1127 1570h-550l26 127h550z" />
    <glyph glyph-name="amacron" unicode="&#x101;" 
d="M927 -10q-93 0 -135.5 38.5t-42.5 114.5l5 64h-6q-83 -126 -172 -176.5t-215 -50.5q-140 0 -227.5 84t-87.5 214q0 185 132.5 280t422.5 99l232 3q19 98 19 127q0 91 -53 134.5t-147 43.5q-119 0 -180 -42.5t-88 -129.5l-178 29q45 147 156.5 213.5t299.5 66.5
q171 0 270.5 -80t99.5 -215q0 -64 -19 -157l-74 -378q-11 -48 -11 -88q0 -73 81 -73q27 0 60 7l-14 -112q-66 -16 -128 -16zM809 536l-199 -4q-119 -3 -187 -21.5t-105.5 -47t-59 -72t-21.5 -105.5q0 -75 48.5 -122t125.5 -47q97 0 175 41.5t129 108.5t67 144zM959 1236
h-550l26 127h550z" />
    <glyph glyph-name="Abreve" unicode="&#x102;" horiz-adv-x="1366" 
d="M1061 0l-75 412h-639l-240 -412h-208l848 1409h217l292 -1409h-195zM830 1265q-13 -26 -37 -69t-362 -635h527l-102 553zM871 1520q-133 0 -213.5 69t-82.5 180h116q3 -59 54.5 -86t134.5 -27q179 0 243 114h117q-52 -122 -147.5 -186t-221.5 -64z" />
    <glyph glyph-name="abreve" unicode="&#x103;" 
d="M927 -10q-93 0 -135.5 38.5t-42.5 114.5l5 64h-6q-83 -126 -172 -176.5t-215 -50.5q-140 0 -227.5 84t-87.5 214q0 185 132.5 280t422.5 99l232 3q19 98 19 127q0 91 -53 134.5t-147 43.5q-119 0 -180 -42.5t-88 -129.5l-178 29q45 147 156.5 213.5t299.5 66.5
q171 0 270.5 -80t99.5 -215q0 -64 -19 -157l-74 -378q-11 -48 -11 -88q0 -73 81 -73q27 0 60 7l-14 -112q-66 -16 -128 -16zM809 536l-199 -4q-119 -3 -187 -21.5t-105.5 -47t-59 -72t-21.5 -105.5q0 -75 48.5 -122t125.5 -47q97 0 175 41.5t129 108.5t67 144zM689 1201
q-133 0 -213.5 85.5t-82.5 223.5h116q3 -85 54.5 -124t134.5 -39q179 0 243 163h117q-51 -148 -146.5 -228.5t-222.5 -80.5z" />
    <glyph glyph-name="Aogonek" unicode="&#x104;" horiz-adv-x="1366" 
d="M1061 0l-75 412h-639l-240 -412h-208l848 1409h217l292 -1409h-195zM830 1265q-13 -26 -37 -69t-362 -635h527l-102 553zM1035 -427q-88 0 -133 47t-45 121q0 83 57 153.5t148 105.5h133q-93 -48 -143 -110.5t-50 -125.5q0 -34 20 -57.5t58 -23.5q54 0 114 22l-15 -105
q-67 -27 -144 -27z" />
    <glyph glyph-name="aogonek" unicode="&#x105;" 
d="M927 -10q-93 0 -135.5 38.5t-42.5 114.5l5 64h-6q-83 -126 -172 -176.5t-215 -50.5q-140 0 -227.5 84t-87.5 214q0 185 132.5 280t422.5 99l232 3q19 98 19 127q0 91 -53 134.5t-147 43.5q-119 0 -180 -42.5t-88 -129.5l-178 29q45 147 156.5 213.5t299.5 66.5
q171 0 270.5 -80t99.5 -215q0 -64 -19 -157l-74 -378q-11 -48 -11 -88q0 -73 81 -73q27 0 60 7l-14 -112q-66 -16 -128 -16zM809 536l-199 -4q-119 -3 -187 -21.5t-105.5 -47t-59 -72t-21.5 -105.5q0 -75 48.5 -122t125.5 -47q97 0 175 41.5t129 108.5t67 144zM802 -417
q-88 0 -133 47t-45 121q0 83 57 153.5t148 105.5h133q-93 -48 -143 -110.5t-50 -125.5q0 -34 20 -57.5t58 -23.5q54 0 114 22l-15 -105q-67 -27 -144 -27z" />
    <glyph glyph-name="Cacute" unicode="&#x106;" horiz-adv-x="1479" 
d="M1358 337q-126 -188 -286 -272.5t-372 -84.5q-181 0 -314.5 72.5t-203 206.5t-69.5 310q0 246 105 445t291.5 307.5t416.5 108.5q217 0 366.5 -90.5t197.5 -254.5l-180 -55q-36 112 -139.5 178t-254.5 66q-184 0 -324 -88.5t-215 -249t-75 -370.5q0 -200 109 -315.5
t302 -115.5q148 0 276 73.5t226 217.5zM863 1530l3 20l261 226h207l-5 -29l-352 -217h-114z" />
    <glyph glyph-name="cacute" unicode="&#x107;" horiz-adv-x="1024" 
d="M469 122q205 0 289 230l156 -49q-121 -323 -449 -323q-192 0 -295 109t-103 306q0 200 72.5 372t192 253.5t293.5 81.5q169 0 267.5 -85t108.5 -233l-177 -25q-6 97 -60 149.5t-145 52.5q-126 0 -204 -67.5t-121 -214.5t-43 -290q0 -267 218 -267zM534 1201l3 20l253 287
h217l-5 -29l-374 -278h-94z" />
    <glyph glyph-name="Ccircumflex" unicode="&#x108;" horiz-adv-x="1479" 
d="M1358 337q-126 -188 -286 -272.5t-372 -84.5q-181 0 -314.5 72.5t-203 206.5t-69.5 310q0 246 105 445t291.5 307.5t416.5 108.5q217 0 366.5 -90.5t197.5 -254.5l-180 -55q-36 112 -139.5 178t-254.5 66q-184 0 -324 -88.5t-215 -249t-75 -370.5q0 -200 109 -315.5
t302 -115.5q148 0 276 73.5t226 217.5zM1289 1550l-4 -20h-95l-192 139h-2l-259 -139h-113l4 20l280 240h204z" />
    <glyph glyph-name="ccircumflex" unicode="&#x109;" horiz-adv-x="1024" 
d="M469 122q205 0 289 230l156 -49q-121 -323 -449 -323q-192 0 -295 109t-103 306q0 200 72.5 372t192 253.5t293.5 81.5q169 0 267.5 -85t108.5 -233l-177 -25q-6 97 -60 149.5t-145 52.5q-126 0 -204 -67.5t-121 -214.5t-43 -290q0 -267 218 -267zM970 1221l-4 -20h-92
l-186 169h-2l-265 -169h-116l4 20l286 270h204z" />
    <glyph glyph-name="Cdotaccent" unicode="&#x10a;" horiz-adv-x="1479" 
d="M1358 337q-126 -188 -286 -272.5t-372 -84.5q-181 0 -314.5 72.5t-203 206.5t-69.5 310q0 246 105 445t291.5 307.5t416.5 108.5q217 0 366.5 -90.5t197.5 -254.5l-180 -55q-36 112 -139.5 178t-254.5 66q-184 0 -324 -88.5t-215 -249t-75 -370.5q0 -200 109 -315.5
t302 -115.5q148 0 276 73.5t226 217.5zM867 1530l34 172h180l-34 -172h-180z" />
    <glyph glyph-name="cdotaccent" unicode="&#x10b;" horiz-adv-x="1024" 
d="M469 122q205 0 289 230l156 -49q-121 -323 -449 -323q-192 0 -295 109t-103 306q0 200 72.5 372t192 253.5t293.5 81.5q169 0 267.5 -85t108.5 -233l-177 -25q-6 97 -60 149.5t-145 52.5q-126 0 -204 -67.5t-121 -214.5t-43 -290q0 -267 218 -267zM589 1312l34 172h180
l-34 -172h-180z" />
    <glyph glyph-name="Ccaron" unicode="&#x10c;" horiz-adv-x="1479" 
d="M1358 337q-126 -188 -286 -272.5t-372 -84.5q-181 0 -314.5 72.5t-203 206.5t-69.5 310q0 246 105 445t291.5 307.5t416.5 108.5q217 0 366.5 -90.5t197.5 -254.5l-180 -55q-36 112 -139.5 178t-254.5 66q-184 0 -324 -88.5t-215 -249t-75 -370.5q0 -200 109 -315.5
t302 -115.5q148 0 276 73.5t226 217.5zM1056 1530h-204l-187 239l4 21h93l205 -139h2l246 139h116l-4 -21z" />
    <glyph glyph-name="ccaron" unicode="&#x10d;" horiz-adv-x="1024" 
d="M469 122q205 0 289 230l156 -49q-121 -323 -449 -323q-192 0 -295 109t-103 306q0 200 72.5 372t192 253.5t293.5 81.5q169 0 267.5 -85t108.5 -233l-177 -25q-6 97 -60 149.5t-145 52.5q-126 0 -204 -67.5t-121 -214.5t-43 -290q0 -267 218 -267zM735 1201h-204
l-181 270l4 20h97l199 -169h2l252 169h112l-4 -20z" />
    <glyph glyph-name="Dcaron" unicode="&#x10e;" horiz-adv-x="1479" 
d="M744 1409q312 0 490.5 -164.5t178.5 -453.5q0 -236 -103 -413t-296.5 -277.5t-438.5 -100.5h-512l273 1409h408zM283 153h284q195 0 344 77.5t228.5 223t79.5 339.5q0 219 -126 341t-353 122h-242zM941 1530h-204l-187 239l4 21h93l205 -139h2l246 139h116l-4 -21z" />
    <glyph glyph-name="dcaron" unicode="&#x10f;" horiz-adv-x="1280" 
d="M401 -21q-157 0 -244.5 94.5t-87.5 259.5q0 203 61.5 393.5t173 282.5t284.5 92q123 0 200.5 -52t109.5 -146h5l28 162l82 419h180l-245 -1261q-29 -141 -38 -223h-172q0 51 21 160h-5q-73 -95 -154 -138t-199 -43zM453 118q99 0 169.5 40.5t119.5 122t77 204t28 219.5
q0 125 -63.5 194.5t-176.5 69.5q-122 0 -193 -72.5t-114 -237t-43 -293.5q0 -123 47 -185t149 -62zM1326 1127h-117q114 101 131 190h-88l32 167h195l-20 -106q-17 -87 -50.5 -145.5t-82.5 -105.5z" />
    <glyph glyph-name="Dcroat" unicode="&#x110;" horiz-adv-x="1479" 
d="M764 1409q312 0 490.5 -164.5t178.5 -453.5q0 -234 -98.5 -412.5t-289 -278.5t-433.5 -100h-549l125 647h-154l30 154h154l118 608h428zM409 801h406l-30 -154h-406l-96 -494h304q195 0 344 77.5t228.5 223t79.5 339.5q0 219 -126 341t-353 122h-262z" />
    <glyph glyph-name="dcroat" unicode="&#x111;" 
d="M453 118q99 0 169.5 40.5t119.5 122t77 204t28 219.5q0 125 -63.5 194.5t-176.5 69.5q-122 0 -193 -72.5t-114 -237t-43 -293.5q0 -123 47 -185t149 -62zM401 -21q-157 0 -244.5 94.5t-87.5 259.5q0 203 61.5 393.5t173 282.5t284.5 92q123 0 200.5 -52t109.5 -146h5
l57 303h-300l25 131h300l29 147h180l-29 -147h132l-25 -131h-132l-192 -983q-29 -141 -38 -223h-172q0 51 21 160h-4q-73 -95 -154 -138t-200 -43z" />
    <glyph glyph-name="Emacron" unicode="&#x112;" horiz-adv-x="1366" 
d="M63 0l273 1409h1049l-30 -156h-858l-88 -452h798l-30 -154h-798l-95 -491h899l-30 -156h-1090zM1158 1570h-550l26 127h550z" />
    <glyph glyph-name="emacron" unicode="&#x113;" 
d="M256 503q-6 -35 -9 -113q0 -133 66.5 -204t200.5 -71q97 0 176 48t123 131l138 -63q-73 -131 -185.5 -191t-272.5 -60q-201 0 -312.5 111.5t-111.5 313.5q0 201 71 360.5t200 248t290 88.5q205 0 319 -103t114 -291q0 -105 -24 -205h-783zM880 641l4 72q0 124 -64.5 190
t-185.5 66q-134 0 -225.5 -85.5t-128.5 -242.5h600zM951 1236h-550l26 127h550z" />
    <glyph glyph-name="Ebreve" unicode="&#x114;" horiz-adv-x="1366" 
d="M63 0l273 1409h1049l-30 -156h-858l-88 -452h798l-30 -154h-798l-95 -491h899l-30 -156h-1090zM847 1520q-133 0 -213.5 69t-82.5 180h116q3 -59 54.5 -86t134.5 -27q179 0 243 114h117q-52 -122 -147.5 -186t-221.5 -64z" />
    <glyph glyph-name="ebreve" unicode="&#x115;" 
d="M256 503q-6 -35 -9 -113q0 -133 66.5 -204t200.5 -71q97 0 176 48t123 131l138 -63q-73 -131 -185.5 -191t-272.5 -60q-201 0 -312.5 111.5t-111.5 313.5q0 201 71 360.5t200 248t290 88.5q205 0 319 -103t114 -291q0 -105 -24 -205h-783zM880 641l4 72q0 124 -64.5 190
t-185.5 66q-134 0 -225.5 -85.5t-128.5 -242.5h600zM698 1201q-133 0 -213.5 85.5t-82.5 223.5h116q3 -85 54.5 -124t134.5 -39q179 0 243 163h117q-51 -148 -146.5 -228.5t-222.5 -80.5z" />
    <glyph glyph-name="Edotaccent" unicode="&#x116;" horiz-adv-x="1366" 
d="M63 0l273 1409h1049l-30 -156h-858l-88 -452h798l-30 -154h-798l-95 -491h899l-30 -156h-1090zM781 1530l34 172h180l-34 -172h-180z" />
    <glyph glyph-name="edotaccent" unicode="&#x117;" 
d="M256 503q-6 -35 -9 -113q0 -133 66.5 -204t200.5 -71q97 0 176 48t123 131l138 -63q-73 -131 -185.5 -191t-272.5 -60q-201 0 -312.5 111.5t-111.5 313.5q0 201 71 360.5t200 248t290 88.5q205 0 319 -103t114 -291q0 -105 -24 -205h-783zM880 641l4 72q0 124 -64.5 190
t-185.5 66q-134 0 -225.5 -85.5t-128.5 -242.5h600zM604 1312l34 172h180l-34 -172h-180z" />
    <glyph glyph-name="Eogonek" unicode="&#x118;" horiz-adv-x="1366" 
d="M63 0l273 1409h1049l-30 -156h-858l-88 -452h798l-30 -154h-798l-95 -491h899l-30 -156h-1090zM860 -427q-88 0 -133 47t-45 121q0 83 57 153.5t148 105.5h133q-93 -48 -143 -110.5t-50 -125.5q0 -34 20 -57.5t58 -23.5q54 0 114 22l-15 -105q-67 -27 -144 -27z" />
    <glyph glyph-name="eogonek" unicode="&#x119;" 
d="M256 503q-6 -35 -9 -113q0 -133 66.5 -204t200.5 -71q97 0 176 48t123 131l138 -63q-73 -131 -185.5 -191t-272.5 -60q-201 0 -312.5 111.5t-111.5 313.5q0 201 71 360.5t200 248t290 88.5q205 0 319 -103t114 -291q0 -105 -24 -205h-783zM880 641l4 72q0 124 -64.5 190
t-185.5 66q-134 0 -225.5 -85.5t-128.5 -242.5h600zM562 -407q-88 0 -133 47t-45 121q0 83 57 153.5t148 105.5h133q-93 -48 -143 -110.5t-50 -125.5q0 -34 20 -57.5t58 -23.5q54 0 114 22l-15 -105q-67 -27 -144 -27z" />
    <glyph glyph-name="Ecaron" unicode="&#x11a;" horiz-adv-x="1366" 
d="M63 0l273 1409h1049l-30 -156h-858l-88 -452h798l-30 -154h-798l-95 -491h899l-30 -156h-1090zM985 1530h-204l-187 239l4 21h93l205 -139h2l246 139h116l-4 -21z" />
    <glyph glyph-name="ecaron" unicode="&#x11b;" 
d="M256 503q-6 -35 -9 -113q0 -133 66.5 -204t200.5 -71q97 0 176 48t123 131l138 -63q-73 -131 -185.5 -191t-272.5 -60q-201 0 -312.5 111.5t-111.5 313.5q0 201 71 360.5t200 248t290 88.5q205 0 319 -103t114 -291q0 -105 -24 -205h-783zM880 641l4 72q0 124 -64.5 190
t-185.5 66q-134 0 -225.5 -85.5t-128.5 -242.5h600zM778 1201h-204l-181 270l4 20h97l199 -169h2l252 169h112l-4 -20z" />
    <glyph glyph-name="Gcircumflex" unicode="&#x11c;" horiz-adv-x="1593" 
d="M742 -20q-305 0 -473 156t-168 437q0 249 105 445.5t297.5 304t440.5 107.5q222 0 364 -84t197 -248l-193 -54q-37 115 -134 172.5t-246 57.5q-192 0 -336.5 -86t-221.5 -244.5t-77 -366.5q0 -211 118 -326.5t333 -115.5q138 0 264 39.5t219 116.5l51 254h-421l32 160
h597l-100 -495q-140 -120 -298.5 -175t-349.5 -55zM1291 1550l-4 -20h-95l-192 139h-2l-259 -139h-113l4 20l280 240h204z" />
    <glyph glyph-name="gcircumflex" unicode="&#x11d;" 
d="M397 -425q-339 0 -393 252l163 42q35 -157 234 -157q142 0 220 73.5t110 241.5l34 174h-2q-62 -89 -109.5 -128t-107 -60t-136.5 -21q-153 0 -246.5 100.5t-93.5 266.5q0 133 37.5 287t102.5 256t158 150.5t220 48.5q121 0 204.5 -57t107.5 -147h2q7 37 25 106.5t23 78.5
h171l-19 -82l-30 -142l-161 -827q-48 -242 -172 -349t-342 -107zM259 373q0 -121 52.5 -184.5t154.5 -63.5q108 0 196 78.5t136.5 215.5t48.5 285q0 125 -64 194.5t-176 69.5q-90 0 -150 -37t-101 -116t-69 -210.5t-28 -231.5zM980 1221l-4 -20h-92l-186 169h-2l-265 -169
h-116l4 20l286 270h204z" />
    <glyph glyph-name="Gbreve" unicode="&#x11e;" horiz-adv-x="1593" 
d="M742 -20q-305 0 -473 156t-168 437q0 249 105 445.5t297.5 304t440.5 107.5q222 0 364 -84t197 -248l-193 -54q-37 115 -134 172.5t-246 57.5q-192 0 -336.5 -86t-221.5 -244.5t-77 -366.5q0 -211 118 -326.5t333 -115.5q138 0 264 39.5t219 116.5l51 254h-421l32 160
h597l-100 -495q-140 -120 -298.5 -175t-349.5 -55zM956 1520q-133 0 -213.5 69t-82.5 180h116q3 -59 54.5 -86t134.5 -27q179 0 243 114h117q-52 -122 -147.5 -186t-221.5 -64z" />
    <glyph glyph-name="gbreve" unicode="&#x11f;" 
d="M397 -425q-339 0 -393 252l163 42q35 -157 234 -157q142 0 220 73.5t110 241.5l34 174h-2q-62 -89 -109.5 -128t-107 -60t-136.5 -21q-153 0 -246.5 100.5t-93.5 266.5q0 133 37.5 287t102.5 256t158 150.5t220 48.5q121 0 204.5 -57t107.5 -147h2q7 37 25 106.5t23 78.5
h171l-19 -82l-30 -142l-161 -827q-48 -242 -172 -349t-342 -107zM259 373q0 -121 52.5 -184.5t154.5 -63.5q108 0 196 78.5t136.5 215.5t48.5 285q0 125 -64 194.5t-176 69.5q-90 0 -150 -37t-101 -116t-69 -210.5t-28 -231.5zM675 1201q-133 0 -213.5 85.5t-82.5 223.5h116
q3 -85 54.5 -124t134.5 -39q179 0 243 163h117q-51 -148 -146.5 -228.5t-222.5 -80.5z" />
    <glyph glyph-name="Gdotaccent" unicode="&#x120;" horiz-adv-x="1593" 
d="M742 -20q-305 0 -473 156t-168 437q0 249 105 445.5t297.5 304t440.5 107.5q222 0 364 -84t197 -248l-193 -54q-37 115 -134 172.5t-246 57.5q-192 0 -336.5 -86t-221.5 -244.5t-77 -366.5q0 -211 118 -326.5t333 -115.5q138 0 264 39.5t219 116.5l51 254h-421l32 160
h597l-100 -495q-140 -120 -298.5 -175t-349.5 -55zM869 1530l34 172h180l-34 -172h-180z" />
    <glyph glyph-name="gdotaccent" unicode="&#x121;" 
d="M397 -425q-339 0 -393 252l163 42q35 -157 234 -157q142 0 220 73.5t110 241.5l34 174h-2q-62 -89 -109.5 -128t-107 -60t-136.5 -21q-153 0 -246.5 100.5t-93.5 266.5q0 133 37.5 287t102.5 256t158 150.5t220 48.5q121 0 204.5 -57t107.5 -147h2q7 37 25 106.5t23 78.5
h171l-19 -82l-30 -142l-161 -827q-48 -242 -172 -349t-342 -107zM259 373q0 -121 52.5 -184.5t154.5 -63.5q108 0 196 78.5t136.5 215.5t48.5 285q0 125 -64 194.5t-176 69.5q-90 0 -150 -37t-101 -116t-69 -210.5t-28 -231.5zM623 1312l34 172h180l-34 -172h-180z" />
    <glyph glyph-name="Gcommaaccent" unicode="&#x122;" horiz-adv-x="1593" 
d="M742 -20q-305 0 -473 156t-168 437q0 249 105 445.5t297.5 304t440.5 107.5q222 0 364 -84t197 -248l-193 -54q-37 115 -134 172.5t-246 57.5q-192 0 -336.5 -86t-221.5 -244.5t-77 -366.5q0 -211 118 -326.5t333 -115.5q138 0 264 39.5t219 116.5l51 254h-421l32 160
h597l-100 -495q-140 -120 -298.5 -175t-349.5 -55zM694 -455h-117q114 101 131 190h-88l32 167h195l-20 -106q-17 -87 -50.5 -145.5t-82.5 -105.5z" />
    <glyph glyph-name="gcommaaccent" unicode="&#x123;" 
d="M397 -425q-339 0 -393 252l163 42q35 -157 234 -157q142 0 220 73.5t110 241.5l34 174h-2q-62 -89 -109.5 -128t-107 -60t-136.5 -21q-153 0 -246.5 100.5t-93.5 266.5q0 133 37.5 287t102.5 256t158 150.5t220 48.5q121 0 204.5 -57t107.5 -147h2q7 37 25 106.5t23 78.5
h171l-19 -82l-30 -142l-161 -827q-48 -242 -172 -349t-342 -107zM259 373q0 -121 52.5 -184.5t154.5 -63.5q108 0 196 78.5t136.5 215.5t48.5 285q0 125 -64 194.5t-176 69.5q-90 0 -150 -37t-101 -116t-69 -210.5t-28 -231.5zM733 1568h117q-114 -101 -131 -190h88
l-32 -167h-195l20 106q17 87 50.5 145.5t82.5 105.5z" />
    <glyph glyph-name="Hcircumflex" unicode="&#x124;" horiz-adv-x="1479" 
d="M1021 0l127 653h-767l-127 -653h-191l274 1409h191l-116 -596h767l116 596h186l-274 -1409h-186zM1258 1550l-4 -20h-95l-192 139h-2l-259 -139h-113l4 20l280 240h204z" />
    <glyph glyph-name="hcircumflex" unicode="&#x125;" 
d="M383 897q83 115 166.5 159.5t198.5 44.5q148 0 222.5 -73t74.5 -211q0 -64 -21 -164l-127 -653h-181l126 645q18 88 18 150q0 167 -179 167q-126 0 -222 -96t-128 -260l-118 -606h-179l288 1484h180l-75 -386q-18 -100 -47 -201h3zM1127 1629l-4 -20h-95l-192 139h-2
l-259 -139h-113l4 20l280 240h204z" />
    <glyph glyph-name="Hbar" unicode="&#x126;" horiz-adv-x="1479" 
d="M1020 0l126 653h-767l-126 -653h-191l199 1025h-154l30 154h154l44 230h191l-44 -230h767l44 230h186l-44 -230h153l-30 -154h-153l-199 -1025h-186zM1178 813l41 212h-767l-41 -212h767z" />
    <glyph glyph-name="hbar" unicode="&#x127;" 
d="M375 857q83 115 166.5 159.5t198.5 44.5q148 0 222.5 -73t74.5 -211q0 -64 -21 -164l-119 -613h-181l118 605q18 88 18 150q0 167 -179 167q-126 0 -222 -96t-128 -260l-110 -566h-179l234 1206h-131l25 131h131l29 147h180l-29 -147h301l-25 -131h-301
q-43 -220 -57 -274.5t-19 -74.5h3z" />
    <glyph glyph-name="Itilde" unicode="&#x128;" horiz-adv-x="569" 
d="M81 0l274 1409h191l-274 -1409h-191zM637 1530q-42 0 -80 20t-72.5 44.5t-66 44.5t-62.5 20q-46 0 -77 -29.5t-56 -99.5h-100q47 152 107.5 210t143.5 58q44 0 82 -20t72 -44.5t65 -44.5t61 -20q91 0 132 129h102q-35 -109 -67 -159.5t-77 -79.5t-107 -29z" />
    <glyph glyph-name="itilde" unicode="&#x129;" horiz-adv-x="455" 
d="M34 0l210 1082h180l-211 -1082h-179zM500 1201q-42 0 -80 18.5t-72.5 41t-66.5 41t-63 18.5q-100 0 -142 -119h-90q47 152 107.5 210t143.5 58q44 0 82 -18.5t72.5 -41t65.5 -41t61 -18.5q101 0 141 119h92q-35 -109 -67 -159.5t-77 -79.5t-107 -29z" />
    <glyph glyph-name="Imacron" unicode="&#x12a;" horiz-adv-x="569" 
d="M81 0l274 1409h191l-274 -1409h-191zM744 1570h-550l26 127h550z" />
    <glyph glyph-name="imacron" unicode="&#x12b;" horiz-adv-x="455" 
d="M34 0l210 1082h180l-211 -1082h-179zM630 1236h-550l26 127h550z" />
    <glyph glyph-name="Ibreve" unicode="&#x12c;" horiz-adv-x="569" 
d="M81 0l274 1409h191l-274 -1409h-191zM464 1520q-133 0 -213.5 69t-82.5 180h116q3 -59 54.5 -86t134.5 -27q179 0 243 114h117q-52 -122 -147.5 -186t-221.5 -64z" />
    <glyph glyph-name="ibreve" unicode="&#x12d;" horiz-adv-x="455" 
d="M34 0l210 1082h180l-211 -1082h-179zM358 1201q-133 0 -213.5 85.5t-82.5 223.5h116q3 -85 54.5 -124t134.5 -39q179 0 243 163h117q-51 -148 -146.5 -228.5t-222.5 -80.5z" />
    <glyph glyph-name="Iogonek" unicode="&#x12e;" horiz-adv-x="569" 
d="M81 0l274 1409h191l-274 -1409h-191zM114 -427q-88 0 -133 47t-45 121q0 83 57 153.5t148 105.5h133q-93 -48 -143 -110.5t-50 -125.5q0 -34 20 -57.5t58 -23.5q54 0 114 22l-15 -105q-67 -27 -144 -27z" />
    <glyph glyph-name="iogonek" unicode="&#x12f;" horiz-adv-x="455" 
d="M287 1312l34 172h180l-34 -172h-180zM33 0l210 1082h180l-211 -1082h-179zM53 -427q-88 0 -133 47t-45 121q0 83 57 153.5t148 105.5h133q-93 -48 -143 -110.5t-50 -125.5q0 -34 20 -57.5t58 -23.5q54 0 114 22l-15 -105q-67 -27 -144 -27z" />
    <glyph glyph-name="Idotaccent" unicode="&#x130;" horiz-adv-x="569" 
d="M81 0l274 1409h191l-274 -1409h-191zM376 1530l34 172h180l-34 -172h-180z" />
    <glyph glyph-name="dotlessi" unicode="&#x131;" horiz-adv-x="569" 
d="M89 0l210 1082h180l-211 -1082h-179z" />
    <glyph glyph-name="IJ" unicode="&#x132;" horiz-adv-x="1502" 
d="M81 0l274 1409h191l-274 -1409h-191zM859 -20q-159 0 -259.5 93t-126.5 270l168 33q23 -117 79 -179t156 -62q105 0 170 72.5t95 232.5l157 813h-291l30 156h481l-193 -986q-43 -224 -157 -333.5t-309 -109.5z" />
    <glyph glyph-name="ij" unicode="&#x133;" horiz-adv-x="909" 
d="M287 1312l34 172h180l-34 -172h-180zM33 0l210 1082h180l-211 -1082h-179zM743 1312l33 172h180l-33 -172h-180zM354 -425q-56 0 -129 14l23 136q52 -8 83 -8q59 0 89 42t47 134l231 1189h180l-237 -1216q-31 -158 -101 -224.5t-186 -66.5z" />
    <glyph glyph-name="Jcircumflex" unicode="&#x134;" horiz-adv-x="1024" 
d="M381 -20q-159 0 -259.5 93t-126.5 270l168 33q23 -117 79 -179t156 -62q105 0 170 72.5t95 232.5l157 813h-291l30 156h481l-193 -986q-43 -224 -157 -333.5t-309 -109.5zM1171 1550l-4 -20h-95l-192 139h-2l-259 -139h-113l4 20l280 240h204z" />
    <glyph glyph-name="jcircumflex" unicode="&#x135;" horiz-adv-x="455" 
d="M669 1221l-4 -20h-92l-186 169h-2l-265 -169h-116l4 20l286 270h204zM-100 -425q-56 0 -129 14l23 136q52 -8 83 -8q59 0 89 42t47 134l231 1189h180l-237 -1216q-31 -158 -101 -224.5t-186 -66.5z" />
    <glyph glyph-name="Kcommaaccent" unicode="&#x136;" horiz-adv-x="1366" 
d="M1022 0l-472 674l-190 -129l-106 -545h-191l273 1409h191l-136 -691l140 129l665 562h245l-750 -630l557 -779h-226zM566 -455h-117q114 101 131 190h-88l32 167h195l-20 -106q-17 -87 -50.5 -145.5t-82.5 -105.5z" />
    <glyph glyph-name="kcommaaccent" unicode="&#x137;" horiz-adv-x="1024" 
d="M721 0l-268 502l-168 -124l-72 -378h-179l288 1484h180l-179 -917l204 190l361 325h222l-530 -465l336 -617h-195zM414 -455h-117q114 101 131 190h-88l32 167h195l-20 -106q-17 -87 -50.5 -145.5t-82.5 -105.5z" />
    <glyph glyph-name="kgreenlandic" unicode="&#x138;" horiz-adv-x="1024" 
d="M721 0l-268 502l-168 -124l-72 -378h-179l210 1082h180l-101 -515l204 190l361 325h222l-530 -465l336 -617h-195z" />
    <glyph glyph-name="Lacute" unicode="&#x139;" 
d="M63 0l273 1409h191l-243 -1253h712l-30 -156h-903zM441 1530l3 20l261 226h207l-5 -29l-352 -217h-114z" />
    <glyph glyph-name="lacute" unicode="&#x13a;" horiz-adv-x="455" 
d="M33 0l288 1484h180l-289 -1484h-179zM309 1609l3 20l261 226h207l-5 -29l-352 -217h-114z" />
    <glyph glyph-name="Lcommaaccent" unicode="&#x13b;" 
d="M63 0l273 1409h191l-243 -1253h712l-30 -156h-903zM469 -455h-117q114 101 131 190h-88l32 167h195l-20 -106q-17 -87 -50.5 -145.5t-82.5 -105.5z" />
    <glyph glyph-name="lcommaaccent" unicode="&#x13c;" horiz-adv-x="455" 
d="M33 0l288 1484h180l-289 -1484h-179zM49 -455h-117q114 101 131 190h-88l32 167h195l-20 -106q-17 -87 -50.5 -145.5t-82.5 -105.5z" />
    <glyph glyph-name="Lcaron" unicode="&#x13d;" 
d="M63 0l273 1409h191l-243 -1253h712l-30 -156h-903zM898 1052h-117q114 101 131 190h-88l32 167h195l-20 -106q-17 -87 -50.5 -145.5t-82.5 -105.5z" />
    <glyph glyph-name="lcaron" unicode="&#x13e;" horiz-adv-x="576" 
d="M33 0l288 1484h180l-289 -1484h-179zM637 1127h-117q114 101 131 190h-88l32 167h195l-20 -106q-17 -87 -50.5 -145.5t-82.5 -105.5z" />
    <glyph glyph-name="Ldot" unicode="&#x13f;" 
d="M63 0l273 1409h191l-243 -1253h712l-30 -156h-903zM677 686l34 172h180l-34 -172h-180z" />
    <glyph glyph-name="ldot" unicode="&#x140;" horiz-adv-x="819" 
d="M33 0l288 1484h180l-289 -1484h-179zM543 686l34 172h180l-34 -172h-180z" />
    <glyph glyph-name="Lslash" unicode="&#x141;" 
d="M282 156h712l-31 -156h-903l105 538l-163 -85l29 158l165 85l138 713h191l-117 -603l306 148l-31 -157l-306 -149z" />
    <glyph glyph-name="lslash" unicode="&#x142;" horiz-adv-x="455" 
d="M32 0l105 542l-135 -68l31 158l134 68l153 784h180l-132 -680l138 72l-31 -159l-138 -71l-126 -646h-179z" />
    <glyph glyph-name="Nacute" unicode="&#x143;" horiz-adv-x="1479" 
d="M987 0l-531 1210q-22 -171 -42 -267l-181 -943h-170l273 1409h212l534 -1215q26 189 45 284l181 931h172l-273 -1409h-220zM797 1530l3 20l261 226h207l-5 -29l-352 -217h-114z" />
    <glyph glyph-name="nacute" unicode="&#x144;" 
d="M721 0l126 645q18 88 18 150q0 167 -179 167q-126 0 -222 -96t-128 -260l-118 -606h-180l166 851q20 95 39 231h170q0 -11 -10.5 -77.5t-17.5 -107.5h3q83 115 166.5 159.5t198.5 44.5q148 0 222.5 -73t74.5 -211q0 -64 -21 -164l-127 -653h-181zM563 1201l3 20l253 287
h217l-5 -29l-374 -278h-94z" />
    <glyph glyph-name="Ncommaaccent" unicode="&#x145;" horiz-adv-x="1479" 
d="M987 0l-531 1210q-22 -171 -42 -267l-181 -943h-170l273 1409h212l534 -1215q26 189 45 284l181 931h172l-273 -1409h-220zM574 -455h-117q114 101 131 190h-88l32 167h195l-20 -106q-17 -87 -50.5 -145.5t-82.5 -105.5z" />
    <glyph glyph-name="ncommaaccent" unicode="&#x146;" 
d="M721 0l126 645q18 88 18 150q0 167 -179 167q-126 0 -222 -96t-128 -260l-118 -606h-180l166 851q20 95 39 231h170q0 -11 -10.5 -77.5t-17.5 -107.5h3q83 115 166.5 159.5t198.5 44.5q148 0 222.5 -73t74.5 -211q0 -64 -21 -164l-127 -653h-181zM414 -455h-117
q114 101 131 190h-88l32 167h195l-20 -106q-17 -87 -50.5 -145.5t-82.5 -105.5z" />
    <glyph glyph-name="Ncaron" unicode="&#x147;" horiz-adv-x="1479" 
d="M987 0l-531 1210q-22 -171 -42 -267l-181 -943h-170l273 1409h212l534 -1215q26 189 45 284l181 931h172l-273 -1409h-220zM1027 1530h-204l-187 239l4 21h93l205 -139h2l246 139h116l-4 -21z" />
    <glyph glyph-name="ncaron" unicode="&#x148;" 
d="M721 0l126 645q18 88 18 150q0 167 -179 167q-126 0 -222 -96t-128 -260l-118 -606h-180l166 851q20 95 39 231h170q0 -11 -10.5 -77.5t-17.5 -107.5h3q83 115 166.5 159.5t198.5 44.5q148 0 222.5 -73t74.5 -211q0 -64 -21 -164l-127 -653h-181zM785 1201h-204l-181 270
l4 20h97l199 -169h2l252 169h112l-4 -20z" />
    <glyph glyph-name="napostrophe" unicode="&#x149;" horiz-adv-x="1259" 
d="M837 0l126 645q18 88 18 150q0 167 -179 167q-126 0 -222 -96t-128 -260l-118 -606h-180l166 851q20 95 39 231h170q0 -11 -10.5 -77.5t-17.5 -107.5h3q83 115 166.5 159.5t198.5 44.5q148 0 222.5 -73t74.5 -211q0 -64 -21 -164l-127 -653h-181zM174 952h-123
q119 136 145 260h-88l38 197h195l-28 -145q-18 -95 -51 -169.5t-88 -142.5z" />
    <glyph glyph-name="Eng" unicode="&#x14a;" horiz-adv-x="1481" 
d="M852 -20q-111 0 -189.5 43.5t-122.5 111.5l141 108q34 -48 81.5 -79t101.5 -31q72 0 119 35.5t79.5 113.5t69.5 264l73 378q14 70 14 124q0 226 -274 226q-119 0 -232 -52.5t-189.5 -141t-96.5 -189.5l-173 -891h-191l212 1092l57 317h184q-12 -91 -41 -251h4
q97 133 229 202t289 69q411 0 411 -357q0 -77 -17 -168l-70 -362q-52 -266 -105 -366.5t-139.5 -148t-224.5 -47.5z" />
    <glyph glyph-name="eng" unicode="&#x14b;" 
d="M584 -425q-56 0 -129 14l23 136q52 -8 83 -8q59 0 89 42t47 134l146 752q18 88 18 150q0 167 -179 167q-126 0 -222 -96t-128 -260l-118 -606h-180l166 851q20 95 39 231h170q0 -11 -10.5 -77.5t-17.5 -107.5h3q83 115 166.5 159.5t198.5 44.5q148 0 222.5 -73t74.5 -211
q0 -64 -21 -164l-154 -787q-31 -158 -101 -224.5t-186 -66.5z" />
    <glyph glyph-name="Omacron" unicode="&#x14c;" horiz-adv-x="1593" 
d="M938 1430q277 0 437.5 -157t160.5 -422q-5 -268 -112 -463.5t-293 -301.5t-422 -106q-284 0 -441 157.5t-157 435.5q0 239 105.5 439.5t294.5 309t427 108.5zM929 1276q-200 0 -339.5 -89t-213.5 -266t-74 -358q0 -209 106.5 -318.5t309.5 -109.5q197 0 335.5 86.5
t215 259.5t76.5 366q0 207 -108.5 318t-307.5 111zM1227 1570h-550l26 127h550z" />
    <glyph glyph-name="omacron" unicode="&#x14d;" 
d="M1074 683q0 -130 -40 -270.5t-114.5 -238t-182.5 -146t-246 -48.5q-196 0 -310 118t-114 321q4 204 74 362t194 239t307 81q210 0 321 -109.5t111 -308.5zM888 683q0 286 -248 286q-135 0 -216.5 -69.5t-126.5 -210.5t-45 -273q0 -148 64 -225.5t186 -77.5
q103 0 165.5 34.5t109.5 108t76.5 187.5t34.5 240zM936 1236h-550l26 127h550z" />
    <glyph glyph-name="Obreve" unicode="&#x14e;" horiz-adv-x="1593" 
d="M938 1430q277 0 437.5 -157t160.5 -422q-5 -268 -112 -463.5t-293 -301.5t-422 -106q-284 0 -441 157.5t-157 435.5q0 239 105.5 439.5t294.5 309t427 108.5zM929 1276q-200 0 -339.5 -89t-213.5 -266t-74 -358q0 -209 106.5 -318.5t309.5 -109.5q197 0 335.5 86.5
t215 259.5t76.5 366q0 207 -108.5 318t-307.5 111zM950 1520q-133 0 -213.5 69t-82.5 180h116q3 -59 54.5 -86t134.5 -27q179 0 243 114h117q-52 -122 -147.5 -186t-221.5 -64z" />
    <glyph glyph-name="obreve" unicode="&#x14f;" 
d="M1074 683q0 -130 -40 -270.5t-114.5 -238t-182.5 -146t-246 -48.5q-196 0 -310 118t-114 321q4 204 74 362t194 239t307 81q210 0 321 -109.5t111 -308.5zM888 683q0 286 -248 286q-135 0 -216.5 -69.5t-126.5 -210.5t-45 -273q0 -148 64 -225.5t186 -77.5
q103 0 165.5 34.5t109.5 108t76.5 187.5t34.5 240zM698 1201q-133 0 -213.5 85.5t-82.5 223.5h116q3 -85 54.5 -124t134.5 -39q179 0 243 163h117q-51 -148 -146.5 -228.5t-222.5 -80.5z" />
    <glyph glyph-name="Ohungarumlaut" unicode="&#x150;" horiz-adv-x="1593" 
d="M938 1430q277 0 437.5 -157t160.5 -422q-5 -268 -112 -463.5t-293 -301.5t-422 -106q-284 0 -441 157.5t-157 435.5q0 239 105.5 439.5t294.5 309t427 108.5zM929 1276q-200 0 -339.5 -89t-213.5 -266t-74 -358q0 -209 106.5 -318.5t309.5 -109.5q197 0 335.5 86.5
t215 259.5t76.5 366q0 207 -108.5 318t-307.5 111zM668 1530l3 20l222 227h207l-5 -29l-334 -218h-93zM1014 1530l3 20l223 227h207l-5 -29l-334 -218h-94z" />
    <glyph glyph-name="ohungarumlaut" unicode="&#x151;" 
d="M1074 683q0 -130 -40 -270.5t-114.5 -238t-182.5 -146t-246 -48.5q-196 0 -310 118t-114 321q4 204 74 362t194 239t307 81q210 0 321 -109.5t111 -308.5zM888 683q0 286 -248 286q-135 0 -216.5 -69.5t-126.5 -210.5t-45 -273q0 -148 64 -225.5t186 -77.5
q103 0 165.5 34.5t109.5 108t76.5 187.5t34.5 240zM354 1201l3 20l252 287h207l-5 -29l-364 -278h-93zM700 1201l3 20l253 287h207l-5 -29l-364 -278h-94z" />
    <glyph glyph-name="OE" unicode="&#x152;" horiz-adv-x="2048" 
d="M893 0q-76 -10 -191 -10q-282 0 -441.5 156t-159.5 427q0 246 106.5 440.5t294 300.5t423.5 106q120 0 269 -11h873l-30 -156h-710l-88 -452h650l-30 -154h-650l-95 -491h751l-30 -156h-942zM712 145q129 0 211 11l213 1099q-84 11 -221 11q-195 0 -334.5 -86t-214 -256
t-74.5 -361q0 -203 109.5 -310.5t310.5 -107.5z" />
    <glyph glyph-name="oe" unicode="&#x153;" horiz-adv-x="1933" 
d="M1055 503q-11 -51 -11 -113q0 -133 66.5 -204t200.5 -71q96 0 173.5 47t122.5 132l138 -63q-74 -133 -186 -192t-269 -59q-268 0 -373 193q-147 -188 -426 -188q-199 0 -310.5 116t-111.5 318q4 202 73.5 360.5t193.5 240t306 81.5q281 0 382 -192q76 93 179 143t224 50
q204 0 317 -103t113 -291q0 -105 -24 -205h-778zM888 683q0 286 -248 286q-135 0 -216 -70.5t-125.5 -211.5t-44.5 -271q0 -298 248 -298q136 0 213.5 66.5t122 202t50.5 296.5zM1674 641l4 72q0 124 -62.5 190t-184.5 66q-134 0 -225.5 -85.5t-128.5 -242.5h597z" />
    <glyph glyph-name="Racute" unicode="&#x154;" horiz-adv-x="1479" 
d="M1051 0l-243 585h-441l-113 -585h-191l273 1409h612q214 0 341 -102t127 -268q0 -188 -108 -298t-319 -139l268 -602h-206zM857 736q181 0 273 75.5t92 212.5q0 112 -74.5 172t-222.5 60h-427l-101 -520h460zM718 1530l3 20l261 226h207l-5 -29l-352 -217h-114z" />
    <glyph glyph-name="racute" unicode="&#x155;" horiz-adv-x="682" 
d="M718 938q-44 13 -90 13q-105 0 -189.5 -110t-114.5 -277l-110 -564h-180l162 830l25 138l18 114h170l-35 -221h4q66 133 130 187t148 54q46 0 95 -14zM357 1201l3 20l253 287h217l-5 -29l-374 -278h-94z" />
    <glyph glyph-name="Rcommaaccent" unicode="&#x156;" horiz-adv-x="1479" 
d="M1051 0l-243 585h-441l-113 -585h-191l273 1409h612q214 0 341 -102t127 -268q0 -188 -108 -298t-319 -139l268 -602h-206zM857 736q181 0 273 75.5t92 212.5q0 112 -74.5 172t-222.5 60h-427l-101 -520h460zM599 -455h-117q114 101 131 190h-88l32 167h195l-20 -106
q-17 -87 -50.5 -145.5t-82.5 -105.5z" />
    <glyph glyph-name="rcommaaccent" unicode="&#x157;" horiz-adv-x="682" 
d="M718 938q-44 13 -90 13q-105 0 -189.5 -110t-114.5 -277l-110 -564h-180l162 830l25 138l18 114h170l-35 -221h4q66 133 130 187t148 54q46 0 95 -14zM64 -455h-117q114 101 131 190h-88l32 167h195l-20 -106q-17 -87 -50.5 -145.5t-82.5 -105.5z" />
    <glyph glyph-name="Rcaron" unicode="&#x158;" horiz-adv-x="1479" 
d="M1051 0l-243 585h-441l-113 -585h-191l273 1409h612q214 0 341 -102t127 -268q0 -188 -108 -298t-319 -139l268 -602h-206zM857 736q181 0 273 75.5t92 212.5q0 112 -74.5 172t-222.5 60h-427l-101 -520h460zM954 1530h-204l-187 239l4 21h93l205 -139h2l246 139h116
l-4 -21z" />
    <glyph glyph-name="rcaron" unicode="&#x159;" horiz-adv-x="682" 
d="M718 938q-44 13 -90 13q-105 0 -189.5 -110t-114.5 -277l-110 -564h-180l162 830l25 138l18 114h170l-35 -221h4q66 133 130 187t148 54q46 0 95 -14zM593 1201h-204l-181 270l4 20h97l199 -169h2l252 169h112l-4 -20z" />
    <glyph glyph-name="Sacute" unicode="&#x15a;" horiz-adv-x="1366" 
d="M616 -20q-249 0 -386.5 88.5t-171.5 269.5l177 37q27 -129 120 -187t275 -58q219 0 320 65.5t101 200.5q0 67 -29 107.5t-99 73t-241 80.5q-171 47 -255.5 96.5t-128 119.5t-43.5 168q0 182 153.5 285.5t415.5 103.5q220 0 353 -76t167 -222l-173 -51q-33 105 -118.5 155
t-229.5 50q-376 0 -376 -236q0 -60 25.5 -98t84 -66.5t232.5 -75.5q195 -54 280.5 -104t131 -121.5t45.5 -176.5q0 -206 -155 -317t-475 -111zM704 1530l3 20l253 287h217l-5 -29l-374 -278h-94z" />
    <glyph glyph-name="sacute" unicode="&#x15b;" horiz-adv-x="1024" 
d="M907 317q0 -162 -124 -249.5t-358 -87.5q-174 0 -276.5 58.5t-143.5 184.5l147 56q33 -88 102.5 -128t186.5 -40q143 0 217 48.5t74 141.5q0 62 -51 103.5t-216 92.5q-128 42 -192 82t-98 93.5t-34 124.5q0 145 116 223.5t327 78.5q354 0 398 -255l-163 -25
q-22 79 -83 114t-164 35q-124 0 -190.5 -39.5t-66.5 -111.5q0 -42 21 -71t60.5 -51.5t182.5 -67.5q127 -40 191.5 -81t100.5 -97t36 -132zM488 1201l3 20l253 287h217l-5 -29l-374 -278h-94z" />
    <glyph glyph-name="Scircumflex" unicode="&#x15c;" horiz-adv-x="1366" 
d="M616 -20q-249 0 -386.5 88.5t-171.5 269.5l177 37q27 -129 120 -187t275 -58q219 0 320 65.5t101 200.5q0 67 -29 107.5t-99 73t-241 80.5q-171 47 -255.5 96.5t-128 119.5t-43.5 168q0 182 153.5 285.5t415.5 103.5q220 0 353 -76t167 -222l-173 -51q-33 105 -118.5 155
t-229.5 50q-376 0 -376 -236q0 -60 25.5 -98t84 -66.5t232.5 -75.5q195 -54 280.5 -104t131 -121.5t45.5 -176.5q0 -206 -155 -317t-475 -111zM1179 1548l-4 -20h-92l-186 169h-2l-265 -169h-116l4 20l286 270h204z" />
    <glyph glyph-name="scircumflex" unicode="&#x15d;" horiz-adv-x="1024" 
d="M907 317q0 -162 -124 -249.5t-358 -87.5q-174 0 -276.5 58.5t-143.5 184.5l147 56q33 -88 102.5 -128t186.5 -40q143 0 217 48.5t74 141.5q0 62 -51 103.5t-216 92.5q-128 42 -192 82t-98 93.5t-34 124.5q0 145 116 223.5t327 78.5q354 0 398 -255l-163 -25
q-22 79 -83 114t-164 35q-124 0 -190.5 -39.5t-66.5 -111.5q0 -42 21 -71t60.5 -51.5t182.5 -67.5q127 -40 191.5 -81t100.5 -97t36 -132zM937 1221l-4 -20h-92l-186 169h-2l-265 -169h-116l4 20l286 270h204z" />
    <glyph glyph-name="Scedilla" unicode="&#x15e;" horiz-adv-x="1366" 
d="M616 -20q-249 0 -386.5 88.5t-171.5 269.5l177 37q27 -129 120 -187t275 -58q219 0 320 65.5t101 200.5q0 67 -29 107.5t-99 73t-241 80.5q-171 47 -255.5 96.5t-128 119.5t-43.5 168q0 182 153.5 285.5t415.5 103.5q220 0 353 -76t167 -222l-173 -51q-33 105 -118.5 155
t-229.5 50q-376 0 -376 -236q0 -60 25.5 -98t84 -66.5t232.5 -75.5q195 -54 280.5 -104t131 -121.5t45.5 -176.5q0 -206 -155 -317t-475 -111zM634 -96q81 -5 121.5 -41t40.5 -95q0 -193 -303 -193q-50 0 -106 7l21 91q48 -6 88 -6q91 0 128.5 22t37.5 67q0 72 -119 72
q-44 0 -58 -2l101 174h107z" />
    <glyph glyph-name="scedilla" unicode="&#x15f;" horiz-adv-x="1024" 
d="M907 317q0 -162 -124 -249.5t-358 -87.5q-174 0 -276.5 58.5t-143.5 184.5l147 56q33 -88 102.5 -128t186.5 -40q143 0 217 48.5t74 141.5q0 62 -51 103.5t-216 92.5q-128 42 -192 82t-98 93.5t-34 124.5q0 145 116 223.5t327 78.5q354 0 398 -255l-163 -25
q-22 79 -83 114t-164 35q-124 0 -190.5 -39.5t-66.5 -111.5q0 -42 21 -71t60.5 -51.5t182.5 -67.5q127 -40 191.5 -81t100.5 -97t36 -132zM461 -96q81 -5 121.5 -41t40.5 -95q0 -193 -303 -193q-50 0 -106 7l21 91q48 -6 88 -6q91 0 128.5 22t37.5 67q0 72 -119 72
q-44 0 -58 -2l101 174h107z" />
    <glyph glyph-name="Scaron" unicode="&#x160;" horiz-adv-x="1366" 
d="M616 -20q-249 0 -386.5 88.5t-171.5 269.5l177 37q27 -129 120 -187t275 -58q219 0 320 65.5t101 200.5q0 67 -29 107.5t-99 73t-241 80.5q-171 47 -255.5 96.5t-128 119.5t-43.5 168q0 182 153.5 285.5t415.5 103.5q220 0 353 -76t167 -222l-173 -51q-33 105 -118.5 155
t-229.5 50q-376 0 -376 -236q0 -60 25.5 -98t84 -66.5t232.5 -75.5q195 -54 280.5 -104t131 -121.5t45.5 -176.5q0 -206 -155 -317t-475 -111zM947 1530h-204l-187 239l4 21h93l205 -139h2l246 139h116l-4 -21z" />
    <glyph glyph-name="scaron" unicode="&#x161;" horiz-adv-x="1024" 
d="M907 317q0 -162 -124 -249.5t-358 -87.5q-174 0 -276.5 58.5t-143.5 184.5l147 56q33 -88 102.5 -128t186.5 -40q143 0 217 48.5t74 141.5q0 62 -51 103.5t-216 92.5q-128 42 -192 82t-98 93.5t-34 124.5q0 145 116 223.5t327 78.5q354 0 398 -255l-163 -25
q-22 79 -83 114t-164 35q-124 0 -190.5 -39.5t-66.5 -111.5q0 -42 21 -71t60.5 -51.5t182.5 -67.5q127 -40 191.5 -81t100.5 -97t36 -132zM713 1201h-204l-181 270l4 20h97l199 -169h2l252 169h112l-4 -20z" />
    <glyph glyph-name="Tcommaaccent" unicode="&#x162;" horiz-adv-x="1251" 
d="M858 1253l-244 -1253h-190l244 1253h-484l30 156h1158l-30 -156h-484zM519 -96q81 -5 121.5 -41t40.5 -95q0 -193 -303 -193q-50 0 -106 7l21 91q48 -6 88 -6q91 0 128.5 22t37.5 67q0 72 -119 72q-44 0 -58 -2l101 174h107z" />
    <glyph glyph-name="tcommaaccent" unicode="&#x163;" horiz-adv-x="569" 
d="M275 -20q-85 0 -133.5 51t-48.5 135q0 55 15 130l126 655h-125l26 131h127l105 242h120l-47 -242h200l-26 -131h-200l-125 -645q-12 -60 -12 -95q0 -88 90 -88q42 0 100 14l-19 -133q-99 -24 -173 -24zM261 -96q81 -5 121.5 -41t40.5 -95q0 -193 -303 -193q-50 0 -106 7
l21 91q48 -6 88 -6q91 0 128.5 22t37.5 67q0 72 -119 72q-44 0 -58 -2l101 174h107z" />
    <glyph glyph-name="Tcaron" unicode="&#x164;" horiz-adv-x="1251" 
d="M858 1253l-244 -1253h-190l244 1253h-484l30 156h1158l-30 -156h-484zM911 1530h-204l-187 239l4 21h93l205 -139h2l246 139h116l-4 -21z" />
    <glyph glyph-name="tcaron" unicode="&#x165;" horiz-adv-x="725" 
d="M275 -20q-85 0 -133.5 51t-48.5 135q0 55 15 130l126 655h-125l26 131h127l105 242h120l-47 -242h200l-26 -131h-200l-125 -645q-12 -60 -12 -95q0 -88 90 -88q42 0 100 14l-19 -133q-99 -24 -173 -24zM785 1127h-117q114 101 131 190h-88l32 167h195l-20 -106
q-17 -87 -50.5 -145.5t-82.5 -105.5z" />
    <glyph glyph-name="Tbar" unicode="&#x166;" horiz-adv-x="1251" 
d="M858 1253l-88 -452h281l-30 -154h-281l-125 -647h-190l125 647h-279l30 154h279l88 452h-484l30 156h1158l-30 -156h-484z" />
    <glyph glyph-name="tbar" unicode="&#x167;" horiz-adv-x="569" 
d="M277 211q0 -88 90 -88q42 0 100 14l-19 -133q-99 -24 -173 -24q-85 0 -133.5 51t-48.5 135q0 55 15 130l42 220h-125l25 131h125l59 304h-125l26 131h127l105 242h120l-47 -242h200l-26 -131h-200l-59 -304h200l-25 -131h-201l-40 -210q-12 -60 -12 -95z" />
    <glyph glyph-name="Utilde" unicode="&#x168;" horiz-adv-x="1479" 
d="M654 -20q-233 0 -367 120.5t-134 330.5q0 44 7.5 105.5t15.5 98.5l150 774h191l-162 -843q-17 -87 -17 -143q0 -136 87.5 -212t244.5 -76q384 0 461 406l168 868h190l-170 -879q-54 -273 -222 -411.5t-443 -138.5zM1091 1530q-42 0 -80 20t-72.5 44.5t-66 44.5t-62.5 20
q-46 0 -77 -29.5t-56 -99.5h-100q47 152 107.5 210t143.5 58q44 0 82 -20t72 -44.5t65 -44.5t61 -20q91 0 132 129h102q-35 -109 -67 -159.5t-77 -79.5t-107 -29z" />
    <glyph glyph-name="utilde" unicode="&#x169;" 
d="M415 1082l-126 -645q-18 -88 -18 -150q0 -167 179 -167q126 0 222 96t128 260l118 606h180l-166 -851q-20 -95 -39 -231h-170q0 11 10.5 77.5t17.5 107.5h-3q-83 -115 -166.5 -159.5t-198.5 -44.5q-148 0 -222.5 73t-74.5 211q0 64 21 164l127 653h181zM838 1201
q-42 0 -80 18.5t-72.5 41t-66.5 41t-63 18.5q-100 0 -142 -119h-90q47 152 107.5 210t143.5 58q44 0 82 -18.5t72.5 -41t65.5 -41t61 -18.5q101 0 141 119h92q-35 -109 -67 -159.5t-77 -79.5t-107 -29z" />
    <glyph glyph-name="Umacron" unicode="&#x16a;" horiz-adv-x="1479" 
d="M654 -20q-233 0 -367 120.5t-134 330.5q0 44 7.5 105.5t15.5 98.5l150 774h191l-162 -843q-17 -87 -17 -143q0 -136 87.5 -212t244.5 -76q384 0 461 406l168 868h190l-170 -879q-54 -273 -222 -411.5t-443 -138.5zM1196 1565h-550l26 127h550z" />
    <glyph glyph-name="umacron" unicode="&#x16b;" 
d="M415 1082l-126 -645q-18 -88 -18 -150q0 -167 179 -167q126 0 222 96t128 260l118 606h180l-166 -851q-20 -95 -39 -231h-170q0 11 10.5 77.5t17.5 107.5h-3q-83 -115 -166.5 -159.5t-198.5 -44.5q-148 0 -222.5 73t-74.5 211q0 64 21 164l127 653h181zM958 1236h-550
l26 127h550z" />
    <glyph glyph-name="Ubreve" unicode="&#x16c;" horiz-adv-x="1479" 
d="M654 -20q-233 0 -367 120.5t-134 330.5q0 44 7.5 105.5t15.5 98.5l150 774h191l-162 -843q-17 -87 -17 -143q0 -136 87.5 -212t244.5 -76q384 0 461 406l168 868h190l-170 -879q-54 -273 -222 -411.5t-443 -138.5zM913 1520q-133 0 -213.5 69t-82.5 180h116
q3 -59 54.5 -86t134.5 -27q179 0 243 114h117q-52 -122 -147.5 -186t-221.5 -64z" />
    <glyph glyph-name="ubreve" unicode="&#x16d;" 
d="M415 1082l-126 -645q-18 -88 -18 -150q0 -167 179 -167q126 0 222 96t128 260l118 606h180l-166 -851q-20 -95 -39 -231h-170q0 11 10.5 77.5t17.5 107.5h-3q-83 -115 -166.5 -159.5t-198.5 -44.5q-148 0 -222.5 73t-74.5 211q0 64 21 164l127 653h181zM682 1201
q-133 0 -213.5 85.5t-82.5 223.5h116q3 -85 54.5 -124t134.5 -39q179 0 243 163h117q-51 -148 -146.5 -228.5t-222.5 -80.5z" />
    <glyph glyph-name="Uring" unicode="&#x16e;" horiz-adv-x="1479" 
d="M654 -20q-233 0 -367 120.5t-134 330.5q0 44 7.5 105.5t15.5 98.5l150 774h191l-162 -843q-17 -87 -17 -143q0 -136 87.5 -212t244.5 -76q384 0 461 406l168 868h190l-170 -879q-54 -273 -222 -411.5t-443 -138.5zM1162 1744q0 -100 -71 -171t-171 -71t-171 71t-71 171
q0 101 71 171t171 70q99 0 170.5 -70.5t71.5 -170.5zM1054 1744q0 58 -38 96t-96 38q-59 0 -97 -39.5t-38 -94.5t38 -96t97 -41q58 0 96 40t38 97z" />
    <glyph glyph-name="uring" unicode="&#x16f;" 
d="M415 1082l-126 -645q-18 -88 -18 -150q0 -167 179 -167q126 0 222 96t128 260l118 606h180l-166 -851q-20 -95 -39 -231h-170q0 11 10.5 77.5t17.5 107.5h-3q-83 -115 -166.5 -159.5t-198.5 -44.5q-148 0 -222.5 73t-74.5 211q0 64 21 164l127 653h181zM931 1410
q0 -100 -71 -171t-171 -71t-171 71t-71 171q0 101 71 171t171 70q99 0 170.5 -70.5t71.5 -170.5zM823 1410q0 58 -38 96t-96 38q-59 0 -97 -39.5t-38 -94.5t38 -96t97 -41q58 0 96 40t38 97z" />
    <glyph glyph-name="Uhungarumlaut" unicode="&#x170;" horiz-adv-x="1479" 
d="M654 -20q-233 0 -367 120.5t-134 330.5q0 44 7.5 105.5t15.5 98.5l150 774h191l-162 -843q-17 -87 -17 -143q0 -136 87.5 -212t244.5 -76q384 0 461 406l168 868h190l-170 -879q-54 -273 -222 -411.5t-443 -138.5zM616 1530l3 20l222 227h207l-5 -29l-334 -218h-93z
M962 1530l3 20l223 227h207l-5 -29l-334 -218h-94z" />
    <glyph glyph-name="uhungarumlaut" unicode="&#x171;" 
d="M415 1082l-126 -645q-18 -88 -18 -150q0 -167 179 -167q126 0 222 96t128 260l118 606h180l-166 -851q-20 -95 -39 -231h-170q0 11 10.5 77.5t17.5 107.5h-3q-83 -115 -166.5 -159.5t-198.5 -44.5q-148 0 -222.5 73t-74.5 211q0 64 21 164l127 653h181zM376 1201l3 20
l252 287h207l-5 -29l-364 -278h-93zM722 1201l3 20l253 287h207l-5 -29l-364 -278h-94z" />
    <glyph glyph-name="Uogonek" unicode="&#x172;" horiz-adv-x="1479" 
d="M654 -20q-233 0 -367 120.5t-134 330.5q0 44 7.5 105.5t15.5 98.5l150 774h191l-162 -843q-17 -87 -17 -143q0 -136 87.5 -212t244.5 -76q384 0 461 406l168 868h190l-170 -879q-54 -273 -222 -411.5t-443 -138.5zM683 -427q-88 0 -133 47t-45 121q0 83 57 153.5
t148 105.5h133q-93 -48 -143 -110.5t-50 -125.5q0 -34 20 -57.5t58 -23.5q54 0 114 22l-15 -105q-67 -27 -144 -27z" />
    <glyph glyph-name="uogonek" unicode="&#x173;" 
d="M415 1082l-126 -645q-18 -88 -18 -150q0 -167 179 -167q126 0 222 96t128 260l118 606h180l-166 -851q-20 -95 -39 -231h-170q0 11 10.5 77.5t17.5 107.5h-3q-83 -115 -166.5 -159.5t-198.5 -44.5q-148 0 -222.5 73t-74.5 211q0 64 21 164l127 653h181zM697 -427
q-88 0 -133 47t-45 121q0 83 57 153.5t148 105.5h133q-93 -48 -143 -110.5t-50 -125.5q0 -34 20 -57.5t58 -23.5q54 0 114 22l-15 -105q-67 -27 -144 -27z" />
    <glyph glyph-name="Wcircumflex" unicode="&#x174;" horiz-adv-x="1933" 
d="M1406 0h-223l-71 895q-14 275 -16 324q-76 -199 -135 -324l-419 -895h-223l-142 1409h197l79 -895q12 -155 16 -346q79 188 130.5 302t443.5 939h183l75 -877q14 -154 17 -364l16 35q48 115 78 184t481 1022h201zM1465 1550l-4 -20h-95l-192 139h-2l-259 -139h-113l4 20
l280 240h204z" />
    <glyph glyph-name="wcircumflex" unicode="&#x175;" horiz-adv-x="1479" 
d="M1068 0h-209l-37 698l-6 236q-30 -75 -54 -131.5t-360 -802.5h-208l-92 1082h178l40 -735l7 -198l81 190l341 743h193l44 -743q6 -108 6 -190q33 79 421 933h176zM1165 1221l-4 -20h-92l-186 169h-2l-265 -169h-116l4 20l286 270h204z" />
    <glyph glyph-name="Ycircumflex" unicode="&#x176;" horiz-adv-x="1366" 
d="M672 0h-190l115 584l-384 825h196l306 -674l560 674h214l-704 -825zM1196 1550l-4 -20h-95l-192 139h-2l-259 -139h-113l4 20l280 240h204z" />
    <glyph glyph-name="ycircumflex" unicode="&#x177;" horiz-adv-x="1024" 
d="M16 -425q-72 0 -132 14l31 134q45 -8 77 -8q95 0 167.5 64t142.5 186l27 47l-217 1070h183l112 -598q15 -80 28 -170.5t14 -117.5q10 22 26 54t453 832h199l-626 -1082q-111 -193 -178.5 -270.5t-141 -116t-165.5 -38.5zM960 1221l-4 -20h-92l-186 169h-2l-265 -169h-116
l4 20l286 270h204z" />
    <glyph glyph-name="Ydieresis" unicode="&#x178;" horiz-adv-x="1366" 
d="M672 0h-190l115 584l-384 825h196l306 -674l560 674h214l-704 -825zM951 1530l35 184h173l-35 -184h-173zM567 1530l35 184h175l-35 -184h-175z" />
    <glyph glyph-name="Zacute" unicode="&#x179;" horiz-adv-x="1251" 
d="M1082 0h-1122l27 143l1054 1110h-765l30 156h1002l-27 -139l-1054 -1114h885zM684 1530l3 20l261 226h207l-5 -29l-352 -217h-114z" />
    <glyph glyph-name="zacute" unicode="&#x17a;" horiz-adv-x="1024" 
d="M-12 0l23 137l742 806h-566l25 139h784l-24 -137l-742 -806h621l-25 -139h-838zM484 1201l3 20l253 287h217l-5 -29l-374 -278h-94z" />
    <glyph glyph-name="Zdotaccent" unicode="&#x17b;" horiz-adv-x="1251" 
d="M1082 0h-1122l27 143l1054 1110h-765l30 156h1002l-27 -139l-1054 -1114h885zM697 1530l34 172h180l-34 -172h-180z" />
    <glyph glyph-name="zdotaccent" unicode="&#x17c;" horiz-adv-x="1024" 
d="M-12 0l23 137l742 806h-566l25 139h784l-24 -137l-742 -806h621l-25 -139h-838zM551 1312l34 172h180l-34 -172h-180z" />
    <glyph glyph-name="Zcaron" unicode="&#x17d;" horiz-adv-x="1251" 
d="M1082 0h-1122l27 143l1054 1110h-765l30 156h1002l-27 -139l-1054 -1114h885zM899 1530h-204l-187 239l4 21h93l205 -139h2l246 139h116l-4 -21z" />
    <glyph glyph-name="zcaron" unicode="&#x17e;" horiz-adv-x="1024" 
d="M-23 0l23 137l742 806h-566l25 139h784l-24 -137l-742 -806h621l-25 -139h-838zM721 1201h-204l-181 270l4 20h97l199 -169h2l252 169h112l-4 -20z" />
    <glyph glyph-name="longs" unicode="&#x17f;" horiz-adv-x="455" 
d="M33 0l234 1204q29 156 101 218t204 62q70 0 118 -12l-24 -137q-43 8 -84 8q-40 0 -65.5 -14.5t-41.5 -43.5t-32 -106l-230 -1179h-180z" />
    <glyph glyph-name="uni0180" unicode="&#x180;" 
d="M167 1337h127l29 147h180l-29 -147h305l-25 -131h-306l-28 -145q-13 -63 -34 -140h4q73 95 154 138t200 43q157 0 244.5 -94.5t87.5 -259.5q0 -203 -61.5 -393.5t-173 -282.5t-284.5 -92q-123 0 -200 52t-109 146h-3q-5 -26 -43 -178h-173q8 25 49 223l191 983h-127z
M692 963q-99 0 -169.5 -40.5t-119.5 -122t-77 -204t-28 -219.5q0 -125 63.5 -194.5t176.5 -69.5q122 0 193 72.5t114 237t43 293.5q0 123 -47 185t-149 62z" />
    <glyph glyph-name="uni0181" unicode="&#x181;" horiz-adv-x="1496" 
d="M438 1261h-16q-94 0 -140.5 -51t-46.5 -143l4 -50l-148 -17q-8 29 -8 58q0 170 90.5 260.5t262.5 90.5h540q209 0 329.5 -86.5t120.5 -235.5q0 -285 -339 -344q138 -23 214 -104.5t76 -199.5q0 -213 -156 -326t-433 -113h-595zM413 153h368q210 0 307.5 73.5t97.5 215.5
q0 107 -79.5 163t-228.5 56h-366zM541 810h331q355 0 355 258q0 188 -268 188h-331z" />
    <glyph glyph-name="uni0182" unicode="&#x182;" horiz-adv-x="1333" 
d="M336 1409h926l-30 -156h-735l-85 -440h324q228 0 355.5 -98t127.5 -278q0 -207 -147.5 -322t-406.5 -115h-603zM282 151h374q369 0 369 276q0 113 -75.5 173.5t-222.5 60.5h-345z" />
    <glyph glyph-name="uni0183" unicode="&#x183;" 
d="M744 1102q157 0 244.5 -94.5t87.5 -259.5q0 -203 -61.5 -393.5t-173 -282.5t-284.5 -92q-123 0 -200 52t-109 146h-3q-5 -26 -43 -178h-173q8 25 49 223l245 1261h744l-31 -159h-564q-32 -162 -50.5 -257.5t-35.5 -146.5h4q73 95 154 138t200 43zM692 963
q-99 0 -169.5 -40.5t-119.5 -122t-77 -204t-28 -219.5q0 -125 63.5 -194.5t176.5 -69.5q122 0 193 72.5t114 237t43 293.5q0 123 -47 185t-149 62z" />
    <glyph glyph-name="uni0184" unicode="&#x184;" horiz-adv-x="1333" 
d="M411 813h313q228 0 355.5 -98t127.5 -278q0 -207 -147.5 -322t-406.5 -115h-592l197 1011l-126 165l6 33l332 200h56zM281 151h363q369 0 369 276q0 113 -75.5 173.5t-222.5 60.5h-334z" />
    <glyph glyph-name="uni0185" unicode="&#x185;" 
d="M744 1102q157 0 244.5 -94.5t87.5 -259.5q0 -203 -61.5 -393.5t-173 -282.5t-284.5 -92q-123 0 -200 52t-109 146h-3q-5 -26 -43 -178h-173q8 25 49 223l167 863l-93 180l7 33l293 185h51l-83 -423q-13 -63 -34 -140h4q73 95 154 138t200 43zM692 963q-99 0 -169.5 -40.5
t-119.5 -122t-77 -204t-28 -219.5q0 -125 63.5 -194.5t176.5 -69.5q122 0 193 72.5t114 237t43 293.5q0 123 -47 185t-149 62z" />
    <glyph glyph-name="uni0186" unicode="&#x186;" horiz-adv-x="1479" 
d="M175 1073q126 188 286 272.5t372 84.5q181 0 314.5 -72.5t203 -206.5t69.5 -310q0 -246 -105 -445t-291.5 -307.5t-416.5 -108.5q-217 0 -366.5 90.5t-197.5 254.5l180 55q36 -112 139.5 -178t254.5 -66q184 0 324 88.5t215 249t75 370.5q0 200 -109 315.5t-302 115.5
q-148 0 -276 -73.5t-226 -217.5z" />
    <glyph glyph-name="uni0187" unicode="&#x187;" horiz-adv-x="1479" 
d="M1358 337q-126 -188 -286 -272.5t-372 -84.5q-181 0 -314.5 72.5t-203 206.5t-69.5 310q0 246 105 445t291.5 307.5t416.5 108.5q283 0 440 -148l8 39q31 148 111.5 221.5t205.5 73.5q64 0 119 -21l-29 -151q-45 18 -86 18q-68 0 -109 -43t-58 -135l-38 -199l-180 -55
q-37 112 -140 178t-254 66q-184 0 -324 -88.5t-215 -249t-75 -370.5q0 -200 109 -315.5t302 -115.5q148 0 276 73.5t226 217.5z" />
    <glyph glyph-name="uni0188" unicode="&#x188;" horiz-adv-x="1024" 
d="M469 122q100 0 171.5 55t117.5 175l156 -49q-121 -323 -449 -323q-193 0 -295.5 110t-102.5 305q0 200 72.5 372t192 253.5t293.5 81.5q163 0 261 -79q70 266 294 266q65 0 115 -21l-29 -151q-48 20 -79 20q-63 0 -99.5 -46.5t-55.5 -143.5l-31 -163l-177 -25
q-6 97 -60 149.5t-145 52.5q-126 0 -204 -67.5t-121 -214.5t-43 -290q0 -267 218 -267z" />
    <glyph glyph-name="uni0189" unicode="&#x189;" horiz-adv-x="1479" 
d="M764 1409q312 0 490.5 -164.5t178.5 -453.5q0 -234 -98.5 -412.5t-289 -278.5t-433.5 -100h-549l125 647h-154l30 154h154l118 608h428zM409 801h406l-30 -154h-406l-96 -494h304q195 0 344 77.5t228.5 223t79.5 339.5q0 219 -126 341t-353 122h-262z" />
    <glyph glyph-name="uni018A" unicode="&#x18a;" horiz-adv-x="1606" 
d="M871 1409q312 0 490.5 -164.5t178.5 -453.5q0 -236 -103 -413t-296.5 -277.5t-438.5 -100.5h-512l244 1261h-15q-94 0 -140.5 -51t-46.5 -143l4 -50l-148 -17q-8 29 -8 58q0 170 90.5 260.5t262.5 90.5h438zM410 153h284q197 0 345 77.5t227.5 223t79.5 339.5
q0 219 -126 341t-353 122h-242z" />
    <glyph glyph-name="uni018B" unicode="&#x18b;" horiz-adv-x="1333" 
d="M554 0q-228 0 -355.5 98t-127.5 278q0 207 147.5 322t406.5 115h403l86 440h-760l30 156h951l-274 -1409h-507zM998 662h-364q-369 0 -369 -276q0 -113 75.5 -173.5t222.5 -60.5h344z" />
    <glyph glyph-name="uni018C" unicode="&#x18c;" 
d="M401 -21q-157 0 -244.5 94.5t-87.5 259.5q0 203 61.5 393.5t173 282.5t284.5 92q123 0 200.5 -52t109.5 -146h5l28 162l51 260h-564l31 159h744l-245 -1261l-33 -192l-5 -31h-172q0 51 21 160h-5q-73 -95 -154 -138t-199 -43zM453 118q99 0 169.5 40.5t119.5 122t77 204
t28 219.5q0 125 -63.5 194.5t-176.5 69.5q-124 0 -196 -75.5t-113 -240t-41 -287.5t47 -185t149 -62z" />
    <glyph glyph-name="uni018D" unicode="&#x18d;" horiz-adv-x="1138" 
d="M1074 683q0 -176 -65.5 -346t-188 -260t-301.5 -96l290 -274l-25 -132h-739l28 145h366l152 -8l-369 343q-85 78 -120 167t-35 197q0 186 68 349.5t194.5 248t312.5 84.5q210 0 321 -109.5t111 -308.5zM888 683q0 286 -248 286q-135 0 -216.5 -69.5t-126.5 -210.5
t-45 -273q0 -148 64 -225.5t186 -77.5q104 0 167.5 36t111.5 113.5t77.5 201.5t29.5 219z" />
    <glyph glyph-name="uni018E" unicode="&#x18e;" horiz-adv-x="1366" 
d="M-30 0l33 156h919l104 491h-818l33 154h818l96 452h-878l33 156h1069l-299 -1409h-1110z" />
    <glyph glyph-name="uni018F" unicode="&#x18f;" horiz-adv-x="1593" 
d="M703 126q226 0 377 136.5t212 389.5h-983q-9 -57 -9 -112q0 -201 104.5 -307.5t298.5 -106.5zM1316 810q2 44 2 58q0 190 -103.5 298t-287.5 108q-154 0 -270.5 -61t-207.5 -192l-168 60q119 179 281.5 264t374.5 85q265 0 414.5 -151.5t149.5 -418.5q0 -255 -98 -456.5
t-281 -312.5t-427 -111q-273 0 -423 147.5t-150 412.5q0 120 37 270h1157z" />
    <glyph glyph-name="uni0190" unicode="&#x190;" horiz-adv-x="1257" 
d="M545 -20q-217 0 -341 98t-124 267q0 164 105.5 269t287.5 130q-108 28 -166.5 95.5t-58.5 169.5q0 191 145.5 305.5t386.5 114.5q200 0 314 -83.5t150 -257.5l-175 -51q-37 131 -108.5 184t-193.5 53q-149 0 -238.5 -75t-89.5 -202q0 -99 79 -147t242 -48h61l-29 -148
h-71q-447 0 -447 -298q0 -104 77 -163.5t211 -59.5q257 0 428 272l145 -87q-85 -131 -168 -200t-187.5 -103.5t-234.5 -34.5z" />
    <glyph glyph-name="uni0191" unicode="&#x191;" horiz-adv-x="1251" 
d="M497 1253l-102 -524h796l-31 -158h-796l-135 -700q-28 -146 -111 -220.5t-233 -74.5q-66 0 -121 21l30 155q45 -18 86 -18q67 0 107.5 43t58.5 135l290 1497h1011l-30 -156h-820z" />
    <glyph glyph-name="florin" unicode="&#x192;" 
d="M1028 1312q-51 15 -110 15q-60 0 -92 -37t-51 -131l-26 -137h211l-25 -131h-213l-258 -1347h-180l258 1347h-152l27 131h151l29 152q31 153 105.5 216.5t207.5 63.5q79 0 149 -20z" />
    <glyph glyph-name="uni0193" unicode="&#x193;" horiz-adv-x="1593" 
d="M742 -20q-305 0 -473 156t-168 437q0 249 105 445.5t297.5 304t440.5 107.5q286 0 437 -138l6 29q28 143 109.5 219t207.5 76q64 0 119 -21l-29 -151q-45 18 -86 18q-68 0 -108.5 -43t-58.5 -135l-36 -186l-193 -54q-37 115 -134 172.5t-246 57.5q-192 0 -336.5 -86
t-221.5 -244.5t-77 -366.5q0 -211 118 -326.5t333 -115.5q141 0 269.5 41t213.5 115l51 254h-421l32 160h597l-100 -495q-140 -120 -298.5 -175t-349.5 -55z" />
    <glyph glyph-name="uni0194" unicode="&#x194;" horiz-adv-x="1017" 
d="M343 -425q-102 0 -162.5 58.5t-60.5 161.5q0 51 22.5 113t61.5 130t149 219l-304 1152h198l234 -997l620 997h206l-756 -1162q51 -160 64 -232t13 -127q0 -87 -35.5 -162.5t-100 -113t-149.5 -37.5zM358 -275q50 0 78.5 47t28.5 132q0 112 -33 226q-67 -96 -107 -185
t-40 -138q0 -39 19.5 -60.5t53.5 -21.5z" />
    <glyph glyph-name="uni0195" unicode="&#x195;" horiz-adv-x="1801" 
d="M1144 -20q-182 0 -275 77.5t-93 213.5q0 42 10 90l59 299q15 80 15 134q0 85 -43 126.5t-135 41.5q-127 0 -223 -96.5t-127 -254.5l-119 -611h-179l288 1484h180l-75 -386q-20 -110 -46 -201h3q73 107 158.5 155.5t206.5 48.5q146 0 221 -73t75 -208q0 -61 -15 -136
l-57 -293q-13 -63 -13 -105q0 -82 44 -125.5t148 -43.5q122 0 187.5 60.5t96.5 216.5l134 688h181l-140 -717q-40 -205 -154.5 -295t-312.5 -90z" />
    <glyph glyph-name="uni0196" unicode="&#x196;" horiz-adv-x="455" 
d="M33 0l288 1484h180l-289 -1484h-179z" />
    <glyph glyph-name="uni0197" unicode="&#x197;" horiz-adv-x="569" 
d="M82 0l130 672h-164l27 141h165l130 671h180l-131 -671h170l-27 -141h-170l-131 -672h-179z" />
    <glyph glyph-name="uni0198" unicode="&#x198;" horiz-adv-x="1366" 
d="M621 1425q65 0 126 -21l-31 -159q-45 18 -86 18q-67 0 -107 -39t-58 -131l-74 -375l140 129l665 562h245l-750 -630l557 -779h-226l-472 674l-190 -129l-106 -545h-191l219 1130q28 146 108.5 220.5t230.5 74.5z" />
    <glyph glyph-name="uni0199" unicode="&#x199;" horiz-adv-x="1024" 
d="M721 0l-268 502l-168 -124l-72 -378h-179l237 1221q25 132 104 204.5t200 72.5q70 0 125 -21l-29 -151q-47 20 -79 20q-63 0 -100 -48t-55 -145l-114 -586l204 190l361 325h222l-530 -465l336 -617h-195z" />
    <glyph glyph-name="uni019A" unicode="&#x19a;" horiz-adv-x="455" 
d="M27 0l129 666h-133l29 134h130l133 684h180l-134 -684h138l-29 -134h-135l-129 -666h-179z" />
    <glyph glyph-name="uni019B" unicode="&#x19b;" horiz-adv-x="1008" 
d="M849 1271l-170 -58l220 -1213h-180l-93 577q-20 110 -25 214q-6 -11 -14 -25.5t-17 -31t-97 -159.5l-370 -575h-195l648 980l-32 179l-207 -67l-23 118l203 69l-35 205h168l26 -148l170 58z" />
    <glyph glyph-name="uni019C" unicode="&#x19c;" horiz-adv-x="1733" 
d="M1041 -20q-205 0 -278 168q-92 -94 -172 -131t-174 -37q-166 0 -253 84t-87 245q0 71 21 181l179 919h188l-179 -921q-18 -93 -18 -157q0 -103 43.5 -149.5t140.5 -46.5q121 0 190.5 77t99.5 228l188 969h189l-185 -953q-16 -78 -16 -134q0 -95 41.5 -141t130.5 -46
q247 0 310 323l185 951h189l-229 -1178q-20 -98 -35 -231h-168l19 146q-58 -78 -141.5 -122t-178.5 -44z" />
    <glyph glyph-name="uni019D" unicode="&#x19d;" horiz-adv-x="1479" 
d="M987 0l-531 1210q-34 -227 -42 -267l-205 -1072q-30 -154 -107 -224.5t-217 -70.5q-66 0 -121 21l30 155q45 -18 86 -18q67 0 107.5 43t58.5 135l290 1497h212l534 -1215q26 189 45 284l181 931h172l-273 -1409h-220z" />
    <glyph glyph-name="uni019E" unicode="&#x19e;" 
d="M634 -425l209 1070q18 88 18 150q0 167 -179 167q-126 0 -222 -96t-128 -260l-118 -606h-180l155 789q8 37 14 87.5t6 67.5q0 11 -3 70t-6 68h166q15 -60 15 -185h3q83 115 166.5 159.5t198.5 44.5q148 0 222.5 -73t74.5 -211q0 -64 -21 -164l-210 -1078h-181z" />
    <glyph glyph-name="uni019F" unicode="&#x19f;" horiz-adv-x="1593" 
d="M938 1430q183 0 318.5 -71.5t207.5 -203.5t72 -304q0 -178 -57.5 -340t-168.5 -282.5t-265.5 -184.5t-335.5 -64q-284 0 -441 157.5t-157 435.5q0 239 105.5 439.5t294.5 309t427 108.5zM718 135q237 0 389 125.5t212 373.5h-1014l-3 -71q0 -209 106.5 -318.5
t309.5 -109.5zM929 1276q-237 0 -386.5 -122.5t-209.5 -359.5h1010l2 53q0 207 -108.5 318t-307.5 111z" />
    <glyph glyph-name="Ohorn" unicode="&#x1a0;" horiz-adv-x="1662" 
d="M938 1430q229 0 381 -109t198 -306q104 47 152 101t64 126h-88l35 167h195l-22 -106q-29 -137 -101 -222t-221 -148q5 -50 5 -82q0 -178 -57.5 -340t-168.5 -282.5t-265.5 -184.5t-335.5 -64q-284 0 -441 157.5t-157 435.5q0 239 105.5 439.5t294.5 309t427 108.5z
M929 1276q-149 0 -263.5 -49t-194.5 -145t-124.5 -240t-44.5 -279q0 -209 106.5 -318.5t309.5 -109.5q197 0 335.5 86.5t215 259.5t76.5 366q0 207 -108.5 318t-307.5 111z" />
    <glyph glyph-name="ohorn" unicode="&#x1a1;" horiz-adv-x="1238" 
d="M491 -20q-196 0 -310 117t-114 322q0 186 68 349.5t194.5 248t312.5 84.5q199 0 310 -99.5t121 -281.5q136 73 162 201h-88l35 167h195l-22 -106q-26 -126 -91 -210t-192 -142q-6 -122 -48 -251t-116 -219t-179 -135t-238 -45zM888 683q0 286 -248 286
q-135 0 -216.5 -69.5t-126.5 -210.5t-45 -273q0 -148 64 -225.5t186 -77.5q103 0 165.5 34.5t109.5 108t76.5 187.5t34.5 240z" />
    <glyph glyph-name="uni01A2" unicode="&#x1a2;" horiz-adv-x="1778" 
d="M709 -20q-284 0 -441 157.5t-157 435.5q0 239 105.5 439.5t294.5 309t427 108.5q172 0 337 -77l465 70h43l-359 -1847h-180l320 1645l-226 2l-224 -1151q-112 -52 -206 -72t-199 -20zM1159 1228q-94 48 -230 48q-149 0 -263.5 -49t-194.5 -145t-124.5 -240t-44.5 -279
q0 -208 105.5 -318t308.5 -110q136 0 240 46z" />
    <glyph glyph-name="uni01A3" unicode="&#x1a3;" horiz-adv-x="1367" 
d="M491 -20q-196 0 -310 117t-114 322q0 186 68 349.5t194.5 248t312.5 84.5q165 0 300 -76l350 68h43l-295 -1518h-175l261 1343h-189l-173 -880q-116 -58 -273 -58zM769 950q-62 19 -129 19q-135 0 -216.5 -69.5t-126.5 -210.5t-45 -273q0 -148 64 -225.5t186 -77.5
q62 0 108 11z" />
    <glyph glyph-name="uni01A4" unicode="&#x1a4;" horiz-adv-x="1496" 
d="M982 1409q231 0 366 -104t135 -285q0 -220 -152.5 -345.5t-416.5 -125.5h-424l-106 -549h-191l244 1261h-15q-94 0 -140.5 -51t-46.5 -143l4 -50l-148 -17q-8 29 -8 58q0 170 90.5 260.5t262.5 90.5h546zM520 700h387q382 0 382 311q0 119 -79 182t-233 63h-349z" />
    <glyph glyph-name="uni01A5" unicode="&#x1a5;" 
d="M554 -20q-123 0 -200.5 52t-109.5 146h-5l-2 -19l-16 -101l-93 -483h-179l319 1646q25 132 104 204.5t200 72.5q70 0 125 -21l-29 -151q-47 20 -79 20q-63 0 -99.5 -48t-55.5 -145l-45 -228h2q75 95 155.5 136t194.5 41q157 0 244.5 -94.5t87.5 -259.5
q0 -203 -61.5 -393.5t-173 -282.5t-284.5 -92zM689 963q-99 0 -169.5 -40.5t-119.5 -122t-77 -204t-28 -219.5q0 -125 63.5 -194.5t176.5 -69.5q122 0 193 72.5t114 237t43 293.5q0 123 -47 185t-149 62z" />
    <glyph glyph-name="uni01A6" unicode="&#x1a6;" horiz-adv-x="1366" 
d="M974 -319l-246 750h-391l-83 -431h-191l273 1409h187l-30 -154h375q211 0 339.5 -101.5t128.5 -268.5q0 -188 -108 -298t-319 -139l271 -767h-206zM777 582q181 0 273 75.5t92 212.5q0 112 -74.5 172t-222.5 60h-377l-101 -520h410z" />
    <glyph glyph-name="uni01A7" unicode="&#x1a7;" horiz-adv-x="1366" 
d="M1147 1095q0 93 -78 142t-222 49q-155 0 -256 -59.5t-157 -188.5l-180 33q89 195 229.5 277t379.5 82q220 0 344.5 -86.5t124.5 -243.5q0 -84 -24 -145.5t-66.5 -106t-101 -76t-127.5 -53.5t-254 -58l-107 -21q-204 -40 -291.5 -111.5t-87.5 -184.5q0 -104 89 -159.5
t242 -55.5q128 0 220 33t156 98.5t117 190.5l176 -47q-95 -229 -259.5 -326.5t-420.5 -97.5q-243 0 -376.5 94.5t-133.5 269.5q0 87 26.5 153t73 114t111 82.5t142 59.5t267.5 63q206 41 285.5 74.5t119 82.5t39.5 122z" />
    <glyph glyph-name="uni01A8" unicode="&#x1a8;" horiz-adv-x="1024" 
d="M579 962q-111 0 -172 -34.5t-92 -115.5l-150 48q78 243 428 243q178 0 274.5 -71t96.5 -200q0 -81 -36 -138t-114 -100.5t-248 -93.5q-175 -51 -230 -78.5t-82 -62t-27 -85.5q0 -153 227 -153q122 0 190 37t99 121l147 -56q-78 -243 -441 -243q-195 0 -300 73.5
t-105 215.5q0 89 41.5 153t126.5 111t268 98q120 32 185.5 60t93.5 59.5t28 82.5q0 63 -54 96t-154 33z" />
    <glyph glyph-name="uni01A9" unicode="&#x1a9;" horiz-adv-x="1228" 
d="M-6 0l33 171l651 581l-423 505l29 152h999l-30 -156h-790l384 -457l-24 -115l-589 -525h867l-31 -156h-1076z" />
    <glyph glyph-name="uni01AA" unicode="&#x1aa;" horiz-adv-x="682" 
d="M176 1279q0 97 67.5 155.5t174.5 58.5q108 0 164.5 -53.5t56.5 -155.5q0 -40 -12 -103l-255 -1305q-5 -28 -5 -50q0 -93 95 -93q56 0 108 13l-30 -158q-69 -13 -134 -13q-103 0 -161.5 59t-58.5 164q0 40 9 88l247 1262q-45 -29 -107 -29q-74 0 -116.5 44t-42.5 116z
M384 1415q-54 0 -90.5 -38t-36.5 -93q0 -42 23 -64t65 -22q56 0 93.5 37t37.5 91q0 42 -24 65.5t-68 23.5z" />
    <glyph glyph-name="uni01AB" unicode="&#x1ab;" horiz-adv-x="569" 
d="M130 -425q-65 0 -115 21l29 153q47 -20 79 -20q63 0 94.5 46t48.5 144l10 61h-1q-85 0 -133.5 51t-48.5 135q0 55 15 130l126 655h-125l26 131h127l105 242h120l-47 -242h200l-26 -131h-200l-125 -645q-12 -60 -12 -95q0 -88 90 -88q42 0 100 14l-44 -294
q-41 -268 -293 -268z" />
    <glyph glyph-name="uni01AC" unicode="&#x1ac;" horiz-adv-x="1251" 
d="M858 1253l-244 -1253h-190l244 1253h-202q-184 0 -184 -186l4 -50l-148 -17q-8 29 -8 58q0 170 90.5 260.5t262.5 90.5h889l-30 -156h-484z" />
    <glyph glyph-name="uni01AD" unicode="&#x1ad;" horiz-adv-x="569" 
d="M275 -20q-85 0 -133.5 51t-48.5 135q0 55 15 130l126 655h-125l26 131h126l28 137q26 129 101.5 204t200.5 75q70 0 125 -21l-29 -151q-47 20 -79 20q-63 0 -99 -48.5t-56 -148.5l-13 -67h200l-26 -131h-200l-125 -645q-12 -60 -12 -95q0 -88 90 -88q42 0 100 14
l-19 -133q-99 -24 -173 -24z" />
    <glyph glyph-name="uni01AE" unicode="&#x1ae;" horiz-adv-x="1251" 
d="M184 1253l30 156h1158l-30 -156h-484l-265 -1362q-8 -40 -8 -70q0 -87 81 -87q58 0 110 16l-31 -158q-71 -17 -135 -17q-108 0 -164.5 55.5t-56.5 154.5q0 38 12 98l267 1370h-484z" />
    <glyph glyph-name="Uhorn" unicode="&#x1af;" horiz-adv-x="1625" 
d="M654 -20q-232 0 -366.5 120t-134.5 331q0 89 23 204l150 774h191l-162 -843q-17 -87 -17 -143q0 -136 87.5 -212t244.5 -76q384 0 461 406l168 868h190l-78 -403q246 47 286 236h-88l35 167h195l-21 -101q-36 -177 -138 -270t-287 -123l-74 -385q-51 -269 -219 -409.5
t-446 -140.5z" />
    <glyph glyph-name="uhorn" unicode="&#x1b0;" horiz-adv-x="1298" 
d="M415 1082l-126 -645q-18 -88 -18 -150q0 -167 179 -167q126 0 222 96t128 260l118 606h180l-80 -410q100 27 169 89.5t89 153.5h-88l35 167h195l-21 -101q-35 -169 -132 -267.5t-265 -134.5q-45 -231 -72 -367t-35 -212h-170q0 11 10.5 77.5t17.5 107.5h-3
q-83 -115 -166.5 -159.5t-198.5 -44.5q-148 0 -222.5 73t-74.5 211q0 64 21 164l127 653h181z" />
    <glyph glyph-name="uni01B1" unicode="&#x1b1;" horiz-adv-x="1558" 
d="M720 -21q-181 0 -317 67t-209 192.5t-73 294.5q0 272 146.5 457.5t424.5 273.5q-165 -11 -215 -11h-254l30 156h589l-43 -224q-241 -77 -365 -238.5t-124 -392.5q0 -198 109.5 -309.5t307.5 -111.5q152 0 274 70t189.5 199.5t67.5 305.5q0 163 -64.5 278.5t-207.5 198.5
l45 224h547l-30 -156h-203q-53 0 -236 11q162 -90 251 -240.5t89 -335.5q0 -206 -93 -368.5t-260.5 -251.5t-375.5 -89z" />
    <glyph glyph-name="uni01B2" unicode="&#x1b2;" horiz-adv-x="1479" 
d="M614 -20q-137 0 -243 53t-164 152.5t-58 236.5q0 76 17 161l160 826h191l-165 -859q-13 -65 -13 -126q0 -141 77 -215t224 -74q126 0 230 77.5t180 229t124.5 355.5t48.5 298q0 167 -129 167q-53 0 -105 -10l23 157q64 11 131 11q135 0 203 -81.5t68 -230.5
q0 -101 -50 -337t-149 -419t-252.5 -277.5t-348.5 -94.5z" />
    <glyph glyph-name="uni01B3" unicode="&#x1b3;" horiz-adv-x="1469" 
d="M1437 1421q128 0 233 -96l-101 -133q-34 27 -67 46.5t-76 19.5q-38 0 -67 -16.5t-65 -60.5l-509 -597l-113 -584h-190l115 584l-384 825h196l306 -674l442 532q76 90 138.5 122t141.5 32z" />
    <glyph glyph-name="uni01B4" unicode="&#x1b4;" horiz-adv-x="1024" 
d="M9 -425q-63 0 -125 14l31 134q36 -8 82 -8q86 0 158.5 60.5t147.5 191.5l26 45l-217 1070h183l112 -597l11 -65q26 -156 31 -223l60 115l509 937q67 123 144.5 183t192.5 60q125 0 220 -93l-98 -128q-56 62 -125 62q-96 0 -175 -137l-673 -1196q-140 -247 -246 -336
t-249 -89z" />
    <glyph glyph-name="uni01B5" unicode="&#x1b5;" horiz-adv-x="1251" 
d="M114 814h510l417 439h-765l30 156h1002l-27 -139l-432 -456h391l-26 -133h-491l-496 -525h885l-30 -156h-1122l27 143l511 538h-410z" />
    <glyph glyph-name="uni01B6" unicode="&#x1b6;" horiz-adv-x="1024" 
d="M74 617h383l323 326h-601l27 139h824l-27 -137l-326 -328h301l-26 -133h-406l-342 -345h679l-27 -139h-900l27 137l344 347h-279z" />
    <glyph glyph-name="uni01B7" unicode="&#x1b7;" horiz-adv-x="1251" 
d="M1033 1253h-785l31 156h1018l-32 -161l-602 -490q222 -25 337.5 -152t115.5 -338q0 -142 -45.5 -272t-135 -226t-215.5 -146t-274 -50q-205 0 -338 91.5t-180 269.5l168 59q44 -144 132 -207.5t221 -63.5q105 0 194.5 40.5t155 121t96.5 183t31 201.5q0 170 -111.5 259.5
t-324.5 89.5h-80l27 141z" />
    <glyph glyph-name="uni01B8" unicode="&#x1b8;" horiz-adv-x="1251" 
d="M846 618h-57q-287 0 -453 -152.5t-166 -413.5q0 -155 84.5 -242t227.5 -87q280 0 452 271l140 -83q-122 -187 -263 -262t-343 -75q-222 0 -355 128.5t-133 347.5q0 195 85 349.5t242 247.5t361 111l-417 490l32 161h1018l-31 -156h-813l416 -494z" />
    <glyph glyph-name="uni01B9" unicode="&#x1b9;" horiz-adv-x="1024" 
d="M1033 942h-711l326 -394l-28 -137h-41q-130 0 -236 -52t-165 -147t-59 -215q0 -128 68 -205.5t178 -77.5q132 0 216 58.5t132 191.5l166 -12q-114 -379 -525 -379q-126 0 -221 53t-146.5 149t-51.5 216q0 215 134.5 364t371.5 186l-298 365l34 177h883z" />
    <glyph glyph-name="uni01BA" unicode="&#x1ba;" horiz-adv-x="1024" 
d="M896 -101q-145 -325 -575 -325q-113 0 -206 33.5t-145.5 96.5t-52.5 147q0 66 25 117t69.5 89.5t122.5 70.5t251 71q140 30 198.5 52.5t90.5 52t32 71.5q0 51 -38.5 77t-123.5 39.5t-220 13.5l27 139l414 298h-606l27 140h868l-23 -119l-465 -326q155 -15 236 -76.5
t81 -163.5q0 -150 -130 -230q-60 -37 -144.5 -59t-181.5 -45q-54 -13 -111.5 -27t-105 -36t-77.5 -56t-30 -86q0 -66 61.5 -103.5t185.5 -37.5q274 0 379 201z" />
    <glyph glyph-name="uni01BB" unicode="&#x1bb;" 
d="M165 750h584q91 74 131 149.5t40 163.5q0 98 -62.5 158.5t-168.5 60.5q-109 0 -190 -59.5t-118 -178.5l-170 37q54 170 178 259.5t311 89.5q182 0 295.5 -98t113.5 -254q0 -178 -143 -328h141l-27 -136h-270q-80 -57 -165.5 -110.5t-164.5 -109t-146.5 -114.5
t-111.5 -127h727l-29 -153h-932l24 127q54 92 124 167.5t156 143t260 176.5h-414z" />
    <glyph glyph-name="uni01BC" unicode="&#x1bc;" horiz-adv-x="1045" 
d="M415 -20q-130 0 -222.5 44.5t-143 127t-54.5 193.5l181 21q9 -126 73 -184.5t177 -58.5t199 53.5t135.5 155t49.5 215.5q0 121 -77 184.5t-222 63.5h-209l89 458h-172l30 156h842l-30 -156h-486l-59 -303h48q208 0 322 -103.5t114 -288.5q0 -161 -71.5 -298t-202 -208.5
t-311.5 -71.5z" />
    <glyph glyph-name="uni01BD" unicode="&#x1bd;" horiz-adv-x="897" 
d="M364 113q121 0 194.5 64.5t73.5 179.5q0 100 -66 146.5t-196 46.5h-157l76 392h-172l27 140h780l-27 -140h-446l-49 -254h44q174 0 273 -81t99 -225q0 -187 -121 -294.5t-337 -107.5q-182 0 -276 85t-94 246l170 12q2 -96 58 -153t146 -57z" />
    <glyph glyph-name="uni01BE" unicode="&#x1be;" horiz-adv-x="1024" 
d="M447 951l-21 -107q-10 -47 -10 -83q0 -51 35.5 -79.5t124.5 -52.5q135 -37 196 -74t94 -90.5t33 -129.5q0 -172 -119.5 -263.5t-350.5 -91.5q-199 0 -296.5 67t-110.5 207l161 30q12 -89 72.5 -128t180.5 -39q140 0 212 53.5t72 150.5q0 49 -32.5 79.5t-110.5 55.5
q-182 56 -235 89.5t-80.5 82t-27.5 117.5q0 17 1.5 33.5t31.5 172.5h-131l26 131h132l67 347l194 78l-82 -425h185l-26 -131h-185z" />
    <glyph glyph-name="uni01BF" unicode="&#x1bf;" 
d="M128 -425h-179l293 1508h166q-5 -42 -9.5 -85.5t-13.5 -88.5h4q63 97 156.5 145t205.5 48q160 0 245 -86t85 -253q0 -430 -452 -703q-103 -62 -217.5 -105.5t-225.5 -80.5zM889 749q0 214 -203 214q-143 0 -237 -106t-132 -311l-102 -525q255 90 392.5 195t209.5 244
t72 289z" />
    <glyph glyph-name="uni01C0" unicode="&#x1c0;" horiz-adv-x="532" 
d="M196 0v1484h180v-1484h-180z" />
    <glyph glyph-name="uni01C1" unicode="&#x1c1;" horiz-adv-x="846" 
d="M199 0v1484h165v-1484h-165zM522 0v1484h165v-1484h-165z" />
    <glyph glyph-name="uni01C2" unicode="&#x1c2;" horiz-adv-x="1196" 
d="M134 1030h396v454h174v-454h398v-153h-398v-308h398v-153h-398v-416h-174v416h-396v153h396v308h-396v153z" />
    <glyph glyph-name="uni01C3" unicode="&#x1c3;" horiz-adv-x="569" 
d="M329 397h-148l172 1012h196zM77 0l40 201h194l-40 -201h-194z" />
    <glyph glyph-name="uni01C4" unicode="&#x1c4;" horiz-adv-x="2730" 
d="M744 1409q312 0 490.5 -164.5t178.5 -453.5q0 -236 -103 -413t-296.5 -277.5t-438.5 -100.5h-512l273 1409h408zM283 153h284q195 0 344 77.5t228.5 223t79.5 339.5q0 219 -126 341t-353 122h-242zM2561 0h-1122l27 143l1054 1110h-765l30 156h1002l-27 -139l-1054 -1114
h885zM2378 1530h-204l-187 239l4 21h93l205 -139h2l246 139h116l-4 -21z" />
    <glyph glyph-name="uni01C5" unicode="&#x1c5;" horiz-adv-x="2503" 
d="M744 1409q312 0 490.5 -164.5t178.5 -453.5q0 -236 -103 -413t-296.5 -277.5t-438.5 -100.5h-512l273 1409h408zM283 153h284q195 0 344 77.5t228.5 223t79.5 339.5q0 219 -126 341t-353 122h-242zM1467 0l23 137l742 806h-566l25 139h784l-24 -137l-742 -806h621
l-25 -139h-838zM2212 1201h-204l-181 270l4 20h97l199 -169h2l252 169h112l-4 -20z" />
    <glyph glyph-name="uni01C6" unicode="&#x1c6;" horiz-adv-x="2163" 
d="M401 -21q-157 0 -244.5 94.5t-87.5 259.5q0 203 61.5 393.5t173 282.5t284.5 92q123 0 200.5 -52t109.5 -146h5l28 162l82 419h180l-245 -1261q-29 -141 -38 -223h-172q0 51 21 160h-5q-73 -95 -154 -138t-199 -43zM453 118q99 0 169.5 40.5t119.5 122t77 204t28 219.5
q0 125 -63.5 194.5t-176.5 69.5q-122 0 -193 -72.5t-114 -237t-43 -293.5q0 -123 47 -185t149 -62zM1872 1201h-204l-181 270l4 20h97l199 -169h2l252 169h112l-4 -20zM1127 0l23 137l742 806h-566l25 139h784l-24 -137l-742 -806h621l-25 -139h-838z" />
    <glyph glyph-name="uni01C7" unicode="&#x1c7;" horiz-adv-x="2163" 
d="M63 0l273 1409h191l-243 -1253h712l-30 -156h-903zM1520 -20q-159 0 -259.5 93t-126.5 270l168 33q23 -117 79 -179t156 -62q105 0 170 72.5t95 232.5l157 813h-291l30 156h481l-193 -986q-43 -224 -157 -333.5t-309 -109.5z" />
    <glyph glyph-name="uni01C8" unicode="&#x1c8;" horiz-adv-x="1594" 
d="M63 0l273 1409h191l-243 -1253h712l-30 -156h-903zM1428 1312l33 172h180l-33 -172h-180zM1039 -425q-56 0 -129 14l23 136q52 -8 83 -8q59 0 89 42t47 134l231 1189h180l-237 -1216q-31 -158 -101 -224.5t-186 -66.5z" />
    <glyph glyph-name="uni01C9" unicode="&#x1c9;" horiz-adv-x="910" 
d="M33 0l288 1484h180l-289 -1484h-179zM744 1312l33 172h180l-33 -172h-180zM355 -425q-56 0 -129 14l23 136q52 -8 83 -8q59 0 89 42t47 134l231 1189h180l-237 -1216q-31 -158 -101 -224.5t-186 -66.5z" />
    <glyph glyph-name="uni01CA" unicode="&#x1ca;" horiz-adv-x="2503" 
d="M987 0l-531 1210q-22 -171 -42 -267l-181 -943h-170l273 1409h212l534 -1215q26 189 45 284l181 931h172l-273 -1409h-220zM1860 -20q-159 0 -259.5 93t-126.5 270l168 33q23 -117 79 -179t156 -62q105 0 170 72.5t95 232.5l157 813h-291l30 156h481l-193 -986
q-43 -224 -157 -333.5t-309 -109.5z" />
    <glyph glyph-name="uni01CB" unicode="&#x1cb;" horiz-adv-x="1934" 
d="M987 0l-531 1210q-22 -171 -42 -267l-181 -943h-170l273 1409h212l534 -1215q26 189 45 284l181 931h172l-273 -1409h-220zM1768 1312l33 172h180l-33 -172h-180zM1379 -425q-56 0 -129 14l23 136q52 -8 83 -8q59 0 89 42t47 134l231 1189h180l-237 -1216
q-31 -158 -101 -224.5t-186 -66.5z" />
    <glyph glyph-name="uni01CC" unicode="&#x1cc;" horiz-adv-x="1594" 
d="M717 0l126 645q18 88 18 150q0 167 -179 167q-126 0 -222 -96t-128 -260l-118 -606h-180l166 851q20 95 39 231h170q0 -11 -10.5 -77.5t-17.5 -107.5h3q83 115 166.5 159.5t198.5 44.5q148 0 222.5 -73t74.5 -211q0 -64 -21 -164l-127 -653h-181zM1428 1312l33 172h180
l-33 -172h-180zM1039 -425q-56 0 -129 14l23 136q52 -8 83 -8q59 0 89 42t47 134l231 1189h180l-237 -1216q-31 -158 -101 -224.5t-186 -66.5z" />
    <glyph glyph-name="uni01CD" unicode="&#x1cd;" horiz-adv-x="1366" 
d="M1061 0l-75 412h-639l-240 -412h-208l848 1409h217l292 -1409h-195zM830 1265q-13 -26 -37 -69t-362 -635h527l-102 553zM954 1530h-204l-187 239l4 21h93l205 -139h2l246 139h116l-4 -21z" />
    <glyph glyph-name="uni01CE" unicode="&#x1ce;" 
d="M927 -10q-93 0 -135.5 38.5t-42.5 114.5l5 64h-6q-83 -126 -172 -176.5t-215 -50.5q-140 0 -227.5 84t-87.5 214q0 185 132.5 280t422.5 99l232 3q19 98 19 127q0 91 -53 134.5t-147 43.5q-119 0 -180 -42.5t-88 -129.5l-178 29q45 147 156.5 213.5t299.5 66.5
q171 0 270.5 -80t99.5 -215q0 -64 -19 -157l-74 -378q-11 -48 -11 -88q0 -73 81 -73q27 0 60 7l-14 -112q-66 -16 -128 -16zM809 536l-199 -4q-119 -3 -187 -21.5t-105.5 -47t-59 -72t-21.5 -105.5q0 -75 48.5 -122t125.5 -47q97 0 175 41.5t129 108.5t67 144zM779 1201
h-204l-181 270l4 20h97l199 -169h2l252 169h112l-4 -20z" />
    <glyph glyph-name="uni01CF" unicode="&#x1cf;" horiz-adv-x="569" 
d="M81 0l274 1409h191l-274 -1409h-191zM571 1530h-204l-187 239l4 21h93l205 -139h2l246 139h116l-4 -21z" />
    <glyph glyph-name="uni01D0" unicode="&#x1d0;" horiz-adv-x="455" 
d="M34 0l210 1082h180l-211 -1082h-179zM453 1201h-204l-181 270l4 20h97l199 -169h2l252 169h112l-4 -20z" />
    <glyph glyph-name="uni01D1" unicode="&#x1d1;" horiz-adv-x="1593" 
d="M938 1430q277 0 437.5 -157t160.5 -422q-5 -268 -112 -463.5t-293 -301.5t-422 -106q-284 0 -441 157.5t-157 435.5q0 239 105.5 439.5t294.5 309t427 108.5zM929 1276q-200 0 -339.5 -89t-213.5 -266t-74 -358q0 -209 106.5 -318.5t309.5 -109.5q197 0 335.5 86.5
t215 259.5t76.5 366q0 207 -108.5 318t-307.5 111zM1053 1530h-204l-187 239l4 21h93l205 -139h2l246 139h116l-4 -21z" />
    <glyph glyph-name="uni01D2" unicode="&#x1d2;" 
d="M1074 683q0 -130 -40 -270.5t-114.5 -238t-182.5 -146t-246 -48.5q-196 0 -310 118t-114 321q4 204 74 362t194 239t307 81q210 0 321 -109.5t111 -308.5zM888 683q0 286 -248 286q-135 0 -216.5 -69.5t-126.5 -210.5t-45 -273q0 -148 64 -225.5t186 -77.5
q103 0 165.5 34.5t109.5 108t76.5 187.5t34.5 240zM771 1201h-204l-181 270l4 20h97l199 -169h2l252 169h112l-4 -20z" />
    <glyph glyph-name="uni01D3" unicode="&#x1d3;" horiz-adv-x="1479" 
d="M654 -20q-233 0 -367 120.5t-134 330.5q0 44 7.5 105.5t15.5 98.5l150 774h191l-162 -843q-17 -87 -17 -143q0 -136 87.5 -212t244.5 -76q384 0 461 406l168 868h190l-170 -879q-54 -273 -222 -411.5t-443 -138.5zM1001 1530h-204l-187 239l4 21h93l205 -139h2l246 139
h116l-4 -21z" />
    <glyph glyph-name="uni01D4" unicode="&#x1d4;" 
d="M415 1082l-126 -645q-18 -88 -18 -150q0 -167 179 -167q126 0 222 96t128 260l118 606h180l-166 -851q-20 -95 -39 -231h-170q0 11 10.5 77.5t17.5 107.5h-3q-83 -115 -166.5 -159.5t-198.5 -44.5q-148 0 -222.5 73t-74.5 211q0 64 21 164l127 653h181zM786 1201h-204
l-181 270l4 20h97l199 -169h2l252 169h112l-4 -20z" />
    <glyph glyph-name="uni01D5" unicode="&#x1d5;" horiz-adv-x="1479" 
d="M654 -20q-233 0 -367 120.5t-134 330.5q0 44 7.5 105.5t15.5 98.5l150 774h191l-162 -843q-17 -87 -17 -143q0 -136 87.5 -212t244.5 -76q384 0 461 406l168 868h190l-170 -879q-54 -273 -222 -411.5t-443 -138.5zM1046 1458l36 184h163l-36 -184h-163zM613 1458l36 184
h163l-36 -184h-163zM1233 1708h-548l25 127h548z" />
    <glyph glyph-name="uni01D6" unicode="&#x1d6;" 
d="M415 1082l-126 -645q-18 -88 -18 -150q0 -167 179 -167q126 0 222 96t128 260l118 606h180l-166 -851q-20 -95 -39 -231h-170q0 11 10.5 77.5t17.5 107.5h-3q-83 -115 -166.5 -159.5t-198.5 -44.5q-148 0 -222.5 73t-74.5 211q0 64 21 164l127 653h181zM796 1219l35 184
h173l-35 -184h-173zM412 1219l35 184h175l-35 -184h-175zM1024 1516h-550l26 127h550z" />
    <glyph glyph-name="uni01D7" unicode="&#x1d7;" horiz-adv-x="1479" 
d="M654 -20q-233 0 -367 120.5t-134 330.5q0 44 7.5 105.5t15.5 98.5l150 774h191l-162 -843q-17 -87 -17 -143q0 -136 87.5 -212t244.5 -76q384 0 461 406l168 868h190l-170 -879q-54 -273 -222 -411.5t-443 -138.5zM1041 1835h226l-2 -12l-294 -171h-129l1 10zM1040 1448
l36 184h163l-36 -184h-163zM607 1448l36 184h163l-36 -184h-163z" />
    <glyph glyph-name="uni01D8" unicode="&#x1d8;" 
d="M415 1082l-126 -645q-18 -88 -18 -150q0 -167 179 -167q126 0 222 96t128 260l118 606h180l-166 -851q-20 -95 -39 -231h-170q0 11 10.5 77.5t17.5 107.5h-3q-83 -115 -166.5 -159.5t-198.5 -44.5q-148 0 -222.5 73t-74.5 211q0 64 21 164l127 653h181zM785 1219l35 184
h173l-35 -184h-173zM401 1219l35 184h175l-35 -184h-175zM641 1481l3 20l253 287h217l-5 -29l-374 -278h-94z" />
    <glyph glyph-name="uni01D9" unicode="&#x1d9;" horiz-adv-x="1479" 
d="M654 -20q-233 0 -367 120.5t-134 330.5q0 44 7.5 105.5t15.5 98.5l150 774h191l-162 -843q-17 -87 -17 -143q0 -136 87.5 -212t244.5 -76q384 0 461 406l168 868h190l-170 -879q-54 -273 -222 -411.5t-443 -138.5zM1126 1835h155l-2 -10l-241 -173h-194l-176 171l2 12
h155l131 -97zM1035 1448l36 184h163l-36 -184h-163zM602 1448l36 184h163l-36 -184h-163z" />
    <glyph glyph-name="uni01DA" unicode="&#x1da;" 
d="M415 1082l-126 -645q-18 -88 -18 -150q0 -167 179 -167q126 0 222 96t128 260l118 606h180l-166 -851q-20 -95 -39 -231h-170q0 11 10.5 77.5t17.5 107.5h-3q-83 -115 -166.5 -159.5t-198.5 -44.5q-148 0 -222.5 73t-74.5 211q0 64 21 164l127 653h181zM801 1219l35 184
h173l-35 -184h-173zM417 1219l35 184h175l-35 -184h-175zM843 1481h-204l-181 270l4 20h97l199 -169h2l252 169h112l-4 -20z" />
    <glyph glyph-name="uni01DB" unicode="&#x1db;" horiz-adv-x="1479" 
d="M654 -20q-233 0 -367 120.5t-134 330.5q0 44 7.5 105.5t15.5 98.5l150 774h191l-162 -843q-17 -87 -17 -143q0 -136 87.5 -212t244.5 -76q384 0 461 406l168 868h190l-170 -879q-54 -273 -222 -411.5t-443 -138.5zM1058 1662l-1 -10h-129l-228 171l2 12h226zM616 1448
l36 184h163l-36 -184h-163zM1049 1448l36 184h163l-36 -184h-163z" />
    <glyph glyph-name="uni01DC" unicode="&#x1dc;" 
d="M415 1082l-126 -645q-18 -88 -18 -150q0 -167 179 -167q126 0 222 96t128 260l118 606h180l-166 -851q-20 -95 -39 -231h-170q0 11 10.5 77.5t17.5 107.5h-3q-83 -115 -166.5 -159.5t-198.5 -44.5q-148 0 -222.5 73t-74.5 211q0 64 21 164l127 653h181zM782 1219l35 184
h173l-35 -184h-173zM398 1219l35 184h175l-35 -184h-175zM716 1481l-282 278l5 29h207l161 -287l-3 -20h-88z" />
    <glyph glyph-name="uni01DD" unicode="&#x1dd;" 
d="M872 579q9 55 9 113q0 133 -66.5 204t-200.5 71q-97 0 -176 -48t-123 -131l-138 63q73 131 185.5 191t272.5 60q201 0 312.5 -111.5t111.5 -313.5q0 -201 -71 -360.5t-200 -248t-290 -88.5q-205 0 -319 103t-114 291q0 105 24 205h783zM248 441l-4 -72q0 -124 64.5 -190
t185.5 -66q134 0 225.5 85.5t128.5 242.5h-600z" />
    <glyph glyph-name="uni01DE" unicode="&#x1de;" horiz-adv-x="1366" 
d="M1061 0l-75 412h-639l-240 -412h-208l848 1409h217l292 -1409h-195zM830 1265q-13 -26 -37 -69t-362 -635h527l-102 553zM995 1480l36 184h163l-36 -184h-163zM562 1480l36 184h163l-36 -184h-163zM1182 1730h-548l25 127h548z" />
    <glyph glyph-name="uni01DF" unicode="&#x1df;" 
d="M927 -10q-93 0 -135.5 38.5t-42.5 114.5l5 64h-6q-83 -126 -172 -176.5t-215 -50.5q-140 0 -227.5 84t-87.5 214q0 185 132.5 280t422.5 99l232 3q19 98 19 127q0 91 -53 134.5t-147 43.5q-119 0 -180 -42.5t-88 -129.5l-178 29q45 147 156.5 213.5t299.5 66.5
q171 0 270.5 -80t99.5 -215q0 -64 -19 -157l-74 -378q-11 -48 -11 -88q0 -73 81 -73q27 0 60 7l-14 -112q-66 -16 -128 -16zM809 536l-199 -4q-119 -3 -187 -21.5t-105.5 -47t-59 -72t-21.5 -105.5q0 -75 48.5 -122t125.5 -47q97 0 175 41.5t129 108.5t67 144zM800 1219
l35 184h173l-35 -184h-173zM416 1219l35 184h175l-35 -184h-175zM1029 1516h-550l26 127h550z" />
    <glyph glyph-name="uni01E0" unicode="&#x1e0;" horiz-adv-x="1366" 
d="M1061 0l-75 412h-639l-240 -412h-208l848 1409h217l292 -1409h-195zM830 1265q-13 -26 -37 -69t-362 -635h527l-102 553zM778 1468l36 184h162l-36 -184h-162zM1185 1708h-548l25 127h548z" />
    <glyph glyph-name="uni01E1" unicode="&#x1e1;" 
d="M927 -10q-93 0 -135.5 38.5t-42.5 114.5l5 64h-6q-83 -126 -172 -176.5t-215 -50.5q-140 0 -227.5 84t-87.5 214q0 185 132.5 280t422.5 99l232 3q19 98 19 127q0 91 -53 134.5t-147 43.5q-119 0 -180 -42.5t-88 -129.5l-178 29q45 147 156.5 213.5t299.5 66.5
q171 0 270.5 -80t99.5 -215q0 -64 -19 -157l-74 -378q-11 -48 -11 -88q0 -73 81 -73q27 0 60 7l-14 -112q-66 -16 -128 -16zM809 536l-199 -4q-119 -3 -187 -21.5t-105.5 -47t-59 -72t-21.5 -105.5q0 -75 48.5 -122t125.5 -47q97 0 175 41.5t129 108.5t67 144zM587 1232
l34 172h180l-34 -172h-180zM1008 1516h-550l26 127h550z" />
    <glyph glyph-name="uni01E2" unicode="&#x1e2;" horiz-adv-x="2048" 
d="M863 0l81 412h-543l-279 -412h-203l959 1409h1189l-30 -156h-739l-88 -452h679l-30 -154h-679l-95 -491h780l-31 -156h-971zM1109 1262h-151l-136 -216l-322 -485h473zM1743 1572h-550l26 127h550z" />
    <glyph glyph-name="uni01E3" unicode="&#x1e3;" horiz-adv-x="1821" 
d="M989 503q-6 -35 -9 -113q0 -133 61.5 -204t182.5 -71q87 0 157.5 45.5t114.5 133.5l138 -63q-71 -132 -177 -191.5t-255 -59.5q-151 0 -246 70t-130 198q-97 -139 -217 -203.5t-262 -64.5q-95 0 -166.5 38t-110 106.5t-38.5 153.5q0 185 135.5 279.5t433.5 99.5l238 3
q19 98 19 127q0 178 -208 178q-124 0 -187.5 -42t-92.5 -130l-178 29q47 147 162.5 213.5t310.5 66.5q222 0 325 -158q124 158 345 158q195 0 303 -104t108 -290q0 -48 -7.5 -109.5t-15.5 -95.5h-734zM814 534l-206 -4q-147 -4 -227.5 -31t-119 -80.5t-38.5 -132.5
q0 -77 46.5 -123t124.5 -46q101 0 186.5 44.5t143 121t73.5 162.5zM1563 641l4 72q0 124 -59 190t-170 66q-123 0 -207 -85t-118 -243h550zM1320 1236h-550l26 127h550z" />
    <glyph glyph-name="uni01E4" unicode="&#x1e4;" horiz-adv-x="1593" 
d="M1454 438h130l-25 -130h-131l-19 -98q-140 -120 -298.5 -175t-349.5 -55q-305 0 -473 156t-168 437q0 249 105 445.5t297.5 304t440.5 107.5q222 0 364.5 -84t196.5 -248l-193 -54q-37 115 -134 172.5t-246 57.5q-192 0 -336.5 -86t-221.5 -244.5t-77 -366.5
q0 -211 118 -326.5t333 -115.5q141 0 269.5 41t213.5 115l4 17h-419l25 130h419l26 130h-421l32 160h597z" />
    <glyph glyph-name="uni01E5" unicode="&#x1e5;" 
d="M879 -93q-56 -171 -174 -251.5t-308 -80.5q-336 0 -390 237l165 37q35 -137 229 -137q115 0 186.5 46.5t110.5 148.5h-757l18 93h766l54 271h-2q-77 -115 -161.5 -162t-191.5 -47q-155 0 -251 95t-96 249q0 126 37.5 269t102 238t157 141.5t214.5 46.5q119 0 201.5 -55
t110.5 -149h2q7 37 25 106.5t23 78.5h171l-7 -30q-23 -89 -42 -194l-167 -858h66l-18 -93h-74zM266 422q0 -111 56 -169t158 -58q103 0 188.5 68.5t132 189t46.5 251.5q0 125 -64 194.5t-176 69.5q-118 0 -188.5 -67.5t-111.5 -214t-41 -264.5z" />
    <glyph glyph-name="uni01E6" unicode="&#x1e6;" horiz-adv-x="1593" 
d="M742 -20q-305 0 -473 156t-168 437q0 249 105 445.5t297.5 304t440.5 107.5q222 0 364 -84t197 -248l-193 -54q-37 115 -134 172.5t-246 57.5q-192 0 -336.5 -86t-221.5 -244.5t-77 -366.5q0 -211 118 -326.5t333 -115.5q138 0 264 39.5t219 116.5l51 254h-421l32 160
h597l-100 -495q-140 -120 -298.5 -175t-349.5 -55zM1044 1530h-204l-187 239l4 21h93l205 -139h2l246 139h116l-4 -21z" />
    <glyph glyph-name="uni01E7" unicode="&#x1e7;" 
d="M397 -425q-339 0 -393 252l163 42q35 -157 234 -157q142 0 220 73.5t110 241.5l34 174h-2q-62 -89 -109.5 -128t-107 -60t-136.5 -21q-153 0 -246.5 100.5t-93.5 266.5q0 133 37.5 287t102.5 256t158 150.5t220 48.5q121 0 204.5 -57t107.5 -147h2q7 37 25 106.5t23 78.5
h171l-19 -82l-30 -142l-161 -827q-48 -242 -172 -349t-342 -107zM259 373q0 -121 52.5 -184.5t154.5 -63.5q108 0 196 78.5t136.5 215.5t48.5 285q0 125 -64 194.5t-176 69.5q-90 0 -150 -37t-101 -116t-69 -210.5t-28 -231.5zM727 1201h-204l-181 270l4 20h97l199 -169h2
l252 169h112l-4 -20z" />
    <glyph glyph-name="uni01E8" unicode="&#x1e8;" horiz-adv-x="1366" 
d="M1022 0l-472 674l-190 -129l-106 -545h-191l273 1409h191l-136 -691l140 129l665 562h245l-750 -630l557 -779h-226zM954 1530h-204l-187 239l4 21h93l205 -139h2l246 139h116l-4 -21z" />
    <glyph glyph-name="uni01E9" unicode="&#x1e9;" horiz-adv-x="1024" 
d="M721 0l-268 502l-168 -124l-72 -378h-179l288 1484h180l-179 -917l204 190l361 325h222l-530 -465l336 -617h-195zM721 1552h-204l-181 270l4 20h97l199 -169h2l252 169h112l-4 -20z" />
    <glyph glyph-name="uni01EA" unicode="&#x1ea;" horiz-adv-x="1593" 
d="M938 1430q277 0 437.5 -157t160.5 -422q-5 -268 -112 -463.5t-293 -301.5t-422 -106q-284 0 -441 157.5t-157 435.5q0 239 105.5 439.5t294.5 309t427 108.5zM929 1276q-200 0 -339.5 -89t-213.5 -266t-74 -358q0 -209 106.5 -318.5t309.5 -109.5q197 0 335.5 86.5
t215 259.5t76.5 366q0 207 -108.5 318t-307.5 111zM737 -427q-88 0 -133 47t-45 121q0 83 57 153.5t148 105.5h133q-93 -48 -143 -110.5t-50 -125.5q0 -34 20 -57.5t58 -23.5q54 0 114 22l-15 -105q-67 -27 -144 -27z" />
    <glyph glyph-name="uni01EB" unicode="&#x1eb;" 
d="M1074 683q0 -130 -40 -270.5t-114.5 -238t-182.5 -146t-246 -48.5q-196 0 -310 118t-114 321q4 204 74 362t194 239t307 81q210 0 321 -109.5t111 -308.5zM888 683q0 286 -248 286q-135 0 -216.5 -69.5t-126.5 -210.5t-45 -273q0 -148 64 -225.5t186 -77.5
q103 0 165.5 34.5t109.5 108t76.5 187.5t34.5 240zM490 -427q-88 0 -133 47t-45 121q0 83 57 153.5t148 105.5h133q-93 -48 -143 -110.5t-50 -125.5q0 -34 20 -57.5t58 -23.5q54 0 114 22l-15 -105q-67 -27 -144 -27z" />
    <glyph glyph-name="uni01EC" unicode="&#x1ec;" horiz-adv-x="1593" 
d="M938 1430q277 0 437.5 -157t160.5 -422q-5 -268 -112 -463.5t-293 -301.5t-422 -106q-284 0 -441 157.5t-157 435.5q0 239 105.5 439.5t294.5 309t427 108.5zM929 1276q-200 0 -339.5 -89t-213.5 -266t-74 -358q0 -209 106.5 -318.5t309.5 -109.5q197 0 335.5 86.5
t215 259.5t76.5 366q0 207 -108.5 318t-307.5 111zM726 -427q-88 0 -133 47t-45 121q0 83 57 153.5t148 105.5h133q-93 -48 -143 -110.5t-50 -125.5q0 -34 20 -57.5t58 -23.5q54 0 114 22l-15 -105q-67 -27 -144 -27zM1263 1587h-550l26 127h550z" />
    <glyph glyph-name="uni01ED" unicode="&#x1ed;" 
d="M1074 683q0 -130 -40 -270.5t-114.5 -238t-182.5 -146t-246 -48.5q-196 0 -310 118t-114 321q4 204 74 362t194 239t307 81q210 0 321 -109.5t111 -308.5zM888 683q0 286 -248 286q-135 0 -216.5 -69.5t-126.5 -210.5t-45 -273q0 -148 64 -225.5t186 -77.5
q103 0 165.5 34.5t109.5 108t76.5 187.5t34.5 240zM494 -426q-88 0 -133 47t-45 121q0 83 57 153.5t148 105.5h133q-93 -48 -143 -110.5t-50 -125.5q0 -34 20 -57.5t58 -23.5q54 0 114 22l-15 -105q-67 -27 -144 -27zM986 1236h-550l26 127h550z" />
    <glyph glyph-name="uni01EE" unicode="&#x1ee;" horiz-adv-x="1251" 
d="M1033 1253h-785l31 156h1018l-32 -161l-602 -490q222 -25 337.5 -152t115.5 -338q0 -142 -45.5 -272t-135 -226t-215.5 -146t-274 -50q-205 0 -338 91.5t-180 269.5l168 59q44 -144 132 -207.5t221 -63.5q105 0 194.5 40.5t155 121t96.5 183t31 201.5q0 170 -111.5 259.5
t-324.5 89.5h-80l27 141zM857 1530h-204l-187 239l4 21h93l205 -139h2l246 139h116l-4 -21z" />
    <glyph glyph-name="uni01EF" unicode="&#x1ef;" horiz-adv-x="1024" 
d="M205 1082h824l-34 -178l-443 -364q149 -21 236.5 -127.5t87.5 -265.5q0 -152 -69 -287.5t-198 -210t-300 -74.5q-186 0 -291.5 76t-121.5 226l172 21q30 -182 248 -182q112 0 198.5 58.5t134 164.5t47.5 209q0 122 -78 192.5t-210 70.5h-82l28 144l460 386h-636z
M721 1201h-204l-181 270l4 20h97l199 -169h2l252 169h112l-4 -20z" />
    <glyph glyph-name="uni01F0" unicode="&#x1f0;" horiz-adv-x="455" 
d="M-100 -425q-56 0 -129 14l23 136q52 -8 83 -8q59 0 88.5 42t47.5 134l231 1189h180l-237 -1216q-31 -158 -101 -224.5t-186 -66.5zM450 1201h-204l-181 270l4 20h97l199 -169h2l252 169h112l-4 -20z" />
    <glyph glyph-name="uni01F1" unicode="&#x1f1;" horiz-adv-x="2730" 
d="M744 1409q312 0 490.5 -164.5t178.5 -453.5q0 -236 -103 -413t-296.5 -277.5t-438.5 -100.5h-512l273 1409h408zM283 153h284q195 0 344 77.5t228.5 223t79.5 339.5q0 219 -126 341t-353 122h-242zM2561 0h-1122l27 143l1054 1110h-765l30 156h1002l-27 -139l-1054 -1114
h885z" />
    <glyph glyph-name="uni01F2" unicode="&#x1f2;" horiz-adv-x="2503" 
d="M744 1409q312 0 490.5 -164.5t178.5 -453.5q0 -236 -103 -413t-296.5 -277.5t-438.5 -100.5h-512l273 1409h408zM283 153h284q195 0 344 77.5t228.5 223t79.5 339.5q0 219 -126 341t-353 122h-242zM1467 0l23 137l742 806h-566l25 139h784l-24 -137l-742 -806h621
l-25 -139h-838z" />
    <glyph glyph-name="uni01F3" unicode="&#x1f3;" horiz-adv-x="2163" 
d="M401 -21q-157 0 -244.5 94.5t-87.5 259.5q0 203 61.5 393.5t173 282.5t284.5 92q123 0 200.5 -52t109.5 -146h5l28 162l82 419h180l-245 -1261q-29 -141 -38 -223h-172q0 51 21 160h-5q-73 -95 -154 -138t-199 -43zM453 118q99 0 169.5 40.5t119.5 122t77 204t28 219.5
q0 125 -63.5 194.5t-176.5 69.5q-122 0 -193 -72.5t-114 -237t-43 -293.5q0 -123 47 -185t149 -62zM1127 0l23 137l742 806h-566l25 139h784l-24 -137l-742 -806h621l-25 -139h-838z" />
    <glyph glyph-name="uni01F4" unicode="&#x1f4;" horiz-adv-x="1593" 
d="M742 -20q-305 0 -473 156t-168 437q0 249 105 445.5t297.5 304t440.5 107.5q222 0 364 -84t197 -248l-193 -54q-37 115 -134 172.5t-246 57.5q-192 0 -336.5 -86t-221.5 -244.5t-77 -366.5q0 -211 118 -326.5t333 -115.5q138 0 264 39.5t219 116.5l51 254h-421l32 160
h597l-100 -495q-140 -120 -298.5 -175t-349.5 -55zM870 1530l3 20l261 226h207l-5 -29l-352 -217h-114z" />
    <glyph glyph-name="uni01F5" unicode="&#x1f5;" 
d="M397 -425q-339 0 -393 252l163 42q35 -157 234 -157q142 0 220 73.5t110 241.5l34 174h-2q-62 -89 -109.5 -128t-107 -60t-136.5 -21q-153 0 -246.5 100.5t-93.5 266.5q0 133 37.5 287t102.5 256t158 150.5t220 48.5q121 0 204.5 -57t107.5 -147h2q7 37 25 106.5t23 78.5
h171l-19 -82l-30 -142l-161 -827q-48 -242 -172 -349t-342 -107zM259 373q0 -121 52.5 -184.5t154.5 -63.5q108 0 196 78.5t136.5 215.5t48.5 285q0 125 -64 194.5t-176 69.5q-90 0 -150 -37t-101 -116t-69 -210.5t-28 -231.5zM547 1201l3 20l253 287h217l-5 -29l-374 -278
h-94z" />
    <glyph glyph-name="uni01F6" unicode="&#x1f6;" horiz-adv-x="2118" 
d="M1273 295q0 -178 206 -178q126 0 196 63.5t100 213.5l133 688h181l-139 -717q-40 -203 -157.5 -294t-324.5 -91q-184 0 -283 80.5t-99 227.5q0 46 9 93l53 272h-767l-127 -653h-191l274 1409h191l-116 -596h767l116 596h186l-197 -1015q-11 -58 -11 -99z" />
    <glyph glyph-name="uni01F7" unicode="&#x1f7;" horiz-adv-x="1265" 
d="M167 -425h-191l357 1834h184l-34 -170q170 191 391 191q186 0 286.5 -100t100.5 -283q0 -230 -138 -473.5t-382 -442t-522 -291.5zM1066 1038q0 112 -58 174.5t-176 62.5q-96 0 -182 -51t-147 -141t-81 -193l-170 -880q205 76 398 253.5t304.5 389t111.5 385.5z" />
    <glyph glyph-name="uni01F8" unicode="&#x1f8;" horiz-adv-x="1479" 
d="M987 0l-531 1210q-22 -171 -42 -267l-181 -943h-170l273 1409h212l534 -1215q26 189 45 284l181 931h172l-273 -1409h-220zM921 1530l-293 217l5 29h207l173 -226l-3 -20h-89z" />
    <glyph glyph-name="uni01F9" unicode="&#x1f9;" 
d="M717 0l126 645q18 88 18 150q0 167 -179 167q-126 0 -222 -96t-128 -260l-118 -606h-180l166 851q20 95 39 231h170q0 -11 -10.5 -77.5t-17.5 -107.5h3q83 115 166.5 159.5t198.5 44.5q148 0 222.5 -73t74.5 -211q0 -64 -21 -164l-127 -653h-181zM665 1201l-282 278l5 29
h207l161 -287l-3 -20h-88z" />
    <glyph glyph-name="Aringacute" unicode="&#x1fa;" horiz-adv-x="1366" 
d="M1061 0l-75 412h-639l-240 -412h-208l848 1409h217l292 -1409h-195zM830 1265q-13 -26 -37 -69t-362 -635h527l-102 553zM1098 1546q0 -100 -71 -171t-171 -71t-171 71t-71 171q0 101 71 171t171 70q99 0 170.5 -70.5t71.5 -170.5zM990 1546q0 58 -38 96t-96 38
q-59 0 -97 -39.5t-38 -94.5t38 -96t97 -41q58 0 96 40t38 97zM792 1831l3 20l261 226h207l-5 -29l-352 -217h-114z" />
    <glyph glyph-name="aringacute" unicode="&#x1fb;" 
d="M927 -10q-93 0 -135.5 38.5t-42.5 114.5l5 64h-6q-83 -126 -172 -176.5t-215 -50.5q-140 0 -227.5 84t-87.5 214q0 185 132.5 280t422.5 99l232 3q19 98 19 127q0 91 -53 134.5t-147 43.5q-119 0 -180 -42.5t-88 -129.5l-178 29q45 147 156.5 213.5t299.5 66.5
q171 0 270.5 -80t99.5 -215q0 -64 -19 -157l-74 -378q-11 -48 -11 -88q0 -73 81 -73q27 0 60 7l-14 -112q-66 -16 -128 -16zM809 536l-199 -4q-119 -3 -187 -21.5t-105.5 -47t-59 -72t-21.5 -105.5q0 -75 48.5 -122t125.5 -47q97 0 175 41.5t129 108.5t67 144zM961 1410
q0 -100 -71 -171t-171 -71t-171 71t-71 171q0 101 71 171t171 70q99 0 170.5 -70.5t71.5 -170.5zM853 1410q0 58 -38 96t-96 38q-59 0 -97 -39.5t-38 -94.5t38 -96t97 -41q58 0 96 40t38 97zM685 1711l3 20l261 226h207l-5 -29l-352 -217h-114z" />
    <glyph glyph-name="AEacute" unicode="&#x1fc;" horiz-adv-x="2048" 
d="M863 0l81 412h-543l-279 -412h-203l959 1409h1189l-30 -156h-739l-88 -452h679l-30 -154h-679l-95 -491h780l-31 -156h-971zM1109 1262h-151l-136 -216l-322 -485h473zM1264 1530l3 20l261 226h207l-5 -29l-352 -217h-114z" />
    <glyph glyph-name="aeacute" unicode="&#x1fd;" horiz-adv-x="1821" 
d="M989 503q-6 -35 -9 -113q0 -133 61.5 -204t182.5 -71q87 0 157.5 45.5t114.5 133.5l138 -63q-71 -132 -177 -191.5t-255 -59.5q-151 0 -246 70t-130 198q-97 -139 -217 -203.5t-262 -64.5q-95 0 -166.5 38t-110 106.5t-38.5 153.5q0 185 135.5 279.5t433.5 99.5l238 3
q19 98 19 127q0 178 -208 178q-124 0 -187.5 -42t-92.5 -130l-178 29q47 147 162.5 213.5t310.5 66.5q222 0 325 -158q124 158 345 158q195 0 303 -104t108 -290q0 -48 -7.5 -109.5t-15.5 -95.5h-734zM814 534l-206 -4q-147 -4 -227.5 -31t-119 -80.5t-38.5 -132.5
q0 -77 46.5 -123t124.5 -46q101 0 186.5 44.5t143 121t73.5 162.5zM1563 641l4 72q0 124 -59 190t-170 66q-123 0 -207 -85t-118 -243h550zM893 1201l3 20l253 287h217l-5 -29l-374 -278h-94z" />
    <glyph glyph-name="Oslashacute" unicode="&#x1fe;" horiz-adv-x="1593" 
d="M1423 1205q103 -145 103 -354q-5 -268 -112 -463.5t-293 -301.5t-422 -106q-252 0 -405 124l-161 -157h-189l260 254q-103 149 -103 372q0 239 105.5 439.5t294.5 309t427 108.5q248 0 404 -127l167 163h192zM919 1276q-200 0 -339.5 -89t-213.5 -266t-74 -358
q0 -136 46 -231l870 850q-109 94 -289 94zM1335 847q0 133 -46 227l-870 -848q105 -91 289 -91q197 0 335.5 86.5t215 259.5t76.5 366zM855 1530l3 20l261 226h207l-5 -29l-352 -217h-114z" />
    <glyph glyph-name="oslashacute" unicode="&#x1ff;" horiz-adv-x="1251" 
d="M201 145q-76 109 -76 274q4 204 74 362t194 239t307 81q162 0 267 -67l70 82h167l-146 -169q74 -103 74 -264q0 -106 -26 -216q-110 -482 -557 -482q-154 0 -258 71l-80 -94h-167zM310 416q0 -73 15 -127l540 627q-63 53 -167 53q-135 0 -216.5 -69.5t-126.5 -210.5
t-45 -273zM946 683q0 66 -14 117l-540 -627q63 -55 168 -55q136 0 213.5 66.5t122 202t50.5 296.5zM609 1201l3 20l253 287h217l-5 -29l-374 -278h-94z" />
    <glyph glyph-name="uni0200" unicode="&#x200;" horiz-adv-x="1366" 
d="M1061 0l-75 412h-639l-240 -412h-208l848 1409h217l292 -1409h-195zM830 1265q-13 -26 -37 -69t-362 -635h527l-102 553zM666 1530l-247 250l4 29h203l134 -259l-4 -20h-90zM997 1530l-247 250l4 29h203l134 -259l-4 -20h-90z" />
    <glyph glyph-name="uni0201" unicode="&#x201;" 
d="M927 -10q-93 0 -135.5 38.5t-42.5 114.5l5 64h-6q-83 -126 -172 -176.5t-215 -50.5q-140 0 -227.5 84t-87.5 214q0 185 132.5 280t422.5 99l232 3q19 98 19 127q0 91 -53 134.5t-147 43.5q-119 0 -180 -42.5t-88 -129.5l-178 29q45 147 156.5 213.5t299.5 66.5
q171 0 270.5 -80t99.5 -215q0 -64 -19 -157l-74 -378q-11 -48 -11 -88q0 -73 81 -73q27 0 60 7l-14 -112q-66 -16 -128 -16zM809 536l-199 -4q-119 -3 -187 -21.5t-105.5 -47t-59 -72t-21.5 -105.5q0 -75 48.5 -122t125.5 -47q97 0 175 41.5t129 108.5t67 144zM529 1202
l-247 250l4 29h203l134 -259l-4 -20h-90zM860 1202l-247 250l4 29h203l134 -259l-4 -20h-90z" />
    <glyph glyph-name="uni0202" unicode="&#x202;" horiz-adv-x="1366" 
d="M1061 0l-75 412h-639l-240 -412h-208l848 1409h217l292 -1409h-195zM830 1265q-13 -26 -37 -69t-362 -635h527l-102 553zM913 1790q114 0 178 -63.5t65 -176.5l-1 -20h-105q-2 61 -45 96.5t-116 35.5q-67 0 -126 -32.5t-87 -99.5h-104q39 119 129.5 189.5t211.5 70.5z
" />
    <glyph glyph-name="uni0203" unicode="&#x203;" 
d="M927 -10q-93 0 -135.5 38.5t-42.5 114.5l5 64h-6q-83 -126 -172 -176.5t-215 -50.5q-140 0 -227.5 84t-87.5 214q0 185 132.5 280t422.5 99l232 3q19 98 19 127q0 91 -53 134.5t-147 43.5q-119 0 -180 -42.5t-88 -129.5l-178 29q45 147 156.5 213.5t299.5 66.5
q171 0 270.5 -80t99.5 -215q0 -64 -19 -157l-74 -378q-11 -48 -11 -88q0 -73 81 -73q27 0 60 7l-14 -112q-66 -16 -128 -16zM809 536l-199 -4q-119 -3 -187 -21.5t-105.5 -47t-59 -72t-21.5 -105.5q0 -75 48.5 -122t125.5 -47q97 0 175 41.5t129 108.5t67 144zM738 1466
q114 0 178 -63.5t65 -176.5l-1 -20h-105q-2 61 -45 96.5t-116 35.5q-67 0 -126 -32.5t-87 -99.5h-104q39 119 129.5 189.5t211.5 70.5z" />
    <glyph glyph-name="uni0204" unicode="&#x204;" horiz-adv-x="1366" 
d="M63 0l273 1409h1049l-30 -156h-858l-88 -452h798l-30 -154h-798l-95 -491h899l-30 -156h-1090zM740 1531l-247 250l4 29h203l134 -259l-4 -20h-90zM1071 1531l-247 250l4 29h203l134 -259l-4 -20h-90z" />
    <glyph glyph-name="uni0205" unicode="&#x205;" 
d="M256 503q-6 -35 -9 -113q0 -133 66.5 -204t200.5 -71q97 0 176 48t123 131l138 -63q-73 -131 -185.5 -191t-272.5 -60q-201 0 -312.5 111.5t-111.5 313.5q0 201 71 360.5t200 248t290 88.5q205 0 319 -103t114 -291q0 -105 -24 -205h-783zM880 641l4 72q0 124 -64.5 190
t-185.5 66q-134 0 -225.5 -85.5t-128.5 -242.5h600zM507 1191l-247 250l4 29h203l134 -259l-4 -20h-90zM838 1191l-247 250l4 29h203l134 -259l-4 -20h-90z" />
    <glyph glyph-name="uni0206" unicode="&#x206;" horiz-adv-x="1366" 
d="M63 0l273 1409h1049l-30 -156h-858l-88 -452h798l-30 -154h-798l-95 -491h899l-30 -156h-1090zM931 1790q114 0 178 -63.5t65 -176.5l-1 -20h-105q-2 61 -45 96.5t-116 35.5q-67 0 -126 -32.5t-87 -99.5h-104q39 119 129.5 189.5t211.5 70.5z" />
    <glyph glyph-name="uni0207" unicode="&#x207;" 
d="M256 503q-6 -35 -9 -113q0 -133 66.5 -204t200.5 -71q97 0 176 48t123 131l138 -63q-73 -131 -185.5 -191t-272.5 -60q-201 0 -312.5 111.5t-111.5 313.5q0 201 71 360.5t200 248t290 88.5q205 0 319 -103t114 -291q0 -105 -24 -205h-783zM880 641l4 72q0 124 -64.5 190
t-185.5 66q-134 0 -225.5 -85.5t-128.5 -242.5h600zM719 1466q114 0 178 -63.5t65 -176.5l-1 -20h-105q-2 61 -45 96.5t-116 35.5q-67 0 -126 -32.5t-87 -99.5h-104q39 119 129.5 189.5t211.5 70.5z" />
    <glyph glyph-name="uni0208" unicode="&#x208;" horiz-adv-x="569" 
d="M81 0l274 1409h191l-274 -1409h-191zM306 1530l-247 250l4 29h203l134 -259l-4 -20h-90zM637 1530l-247 250l4 29h203l134 -259l-4 -20h-90z" />
    <glyph glyph-name="uni0209" unicode="&#x209;" horiz-adv-x="569" 
d="M89 0l210 1082h180l-211 -1082h-179zM277 1191l-247 250l4 29h203l134 -259l-4 -20h-90zM608 1191l-247 250l4 29h203l134 -259l-4 -20h-90z" />
    <glyph glyph-name="uni020A" unicode="&#x20a;" horiz-adv-x="569" 
d="M81 0l274 1409h191l-274 -1409h-191zM523 1790q114 0 178 -63.5t65 -176.5l-1 -20h-105q-2 61 -45 96.5t-116 35.5q-67 0 -126 -32.5t-87 -99.5h-104q39 119 129.5 189.5t211.5 70.5z" />
    <glyph glyph-name="uni020B" unicode="&#x20b;" horiz-adv-x="569" 
d="M89 0l210 1082h180l-211 -1082h-179zM460 1466q114 0 178 -63.5t65 -176.5l-1 -20h-105q-2 61 -45 96.5t-116 35.5q-67 0 -126 -32.5t-87 -99.5h-104q39 119 129.5 189.5t211.5 70.5z" />
    <glyph glyph-name="uni020C" unicode="&#x20c;" horiz-adv-x="1593" 
d="M938 1430q277 0 437.5 -157t160.5 -422q-5 -268 -112 -463.5t-293 -301.5t-422 -106q-284 0 -441 157.5t-157 435.5q0 239 105.5 439.5t294.5 309t427 108.5zM929 1276q-200 0 -339.5 -89t-213.5 -266t-74 -358q0 -209 106.5 -318.5t309.5 -109.5q197 0 335.5 86.5
t215 259.5t76.5 366q0 207 -108.5 318t-307.5 111zM775 1530l-247 250l4 29h203l134 -259l-4 -20h-90zM1106 1530l-247 250l4 29h203l134 -259l-4 -20h-90z" />
    <glyph glyph-name="uni020D" unicode="&#x20d;" 
d="M1074 683q0 -130 -40 -270.5t-114.5 -238t-182.5 -146t-246 -48.5q-196 0 -310 118t-114 321q4 204 74 362t194 239t307 81q210 0 321 -109.5t111 -308.5zM888 683q0 286 -248 286q-135 0 -216.5 -69.5t-126.5 -210.5t-45 -273q0 -148 64 -225.5t186 -77.5
q103 0 165.5 34.5t109.5 108t76.5 187.5t34.5 240zM507 1191l-247 250l4 29h203l134 -259l-4 -20h-90zM838 1191l-247 250l4 29h203l134 -259l-4 -20h-90z" />
    <glyph glyph-name="uni020E" unicode="&#x20e;" horiz-adv-x="1593" 
d="M938 1430q277 0 437.5 -157t160.5 -422q-5 -268 -112 -463.5t-293 -301.5t-422 -106q-284 0 -441 157.5t-157 435.5q0 239 105.5 439.5t294.5 309t427 108.5zM929 1276q-200 0 -339.5 -89t-213.5 -266t-74 -358q0 -209 106.5 -318.5t309.5 -109.5q197 0 335.5 86.5
t215 259.5t76.5 366q0 207 -108.5 318t-307.5 111zM992 1790q114 0 178 -63.5t65 -176.5l-1 -20h-105q-2 61 -45 96.5t-116 35.5q-67 0 -126 -32.5t-87 -99.5h-104q39 119 129.5 189.5t211.5 70.5z" />
    <glyph glyph-name="uni020F" unicode="&#x20f;" 
d="M1074 683q0 -130 -40 -270.5t-114.5 -238t-182.5 -146t-246 -48.5q-196 0 -310 118t-114 321q4 204 74 362t194 239t307 81q210 0 321 -109.5t111 -308.5zM888 683q0 286 -248 286q-135 0 -216.5 -69.5t-126.5 -210.5t-45 -273q0 -148 64 -225.5t186 -77.5
q103 0 165.5 34.5t109.5 108t76.5 187.5t34.5 240zM709 1466q114 0 178 -63.5t65 -176.5l-1 -20h-105q-2 61 -45 96.5t-116 35.5q-67 0 -126 -32.5t-87 -99.5h-104q39 119 129.5 189.5t211.5 70.5z" />
    <glyph glyph-name="uni0210" unicode="&#x210;" horiz-adv-x="1479" 
d="M1051 0l-243 585h-441l-113 -585h-191l273 1409h612q214 0 341 -102t127 -268q0 -188 -108 -298t-319 -139l268 -602h-206zM857 736q181 0 273 75.5t92 212.5q0 112 -74.5 172t-222.5 60h-427l-101 -520h460zM671 1530l-247 250l4 29h203l134 -259l-4 -20h-90zM1002 1530
l-247 250l4 29h203l134 -259l-4 -20h-90z" />
    <glyph glyph-name="uni0211" unicode="&#x211;" horiz-adv-x="682" 
d="M718 938q-44 13 -90 13q-105 0 -189.5 -110t-114.5 -277l-110 -564h-180l162 830l25 138l18 114h170l-35 -221h4q66 133 130 187t148 54q46 0 95 -14zM334 1191l-247 250l4 29h203l134 -259l-4 -20h-90zM665 1191l-247 250l4 29h203l134 -259l-4 -20h-90z" />
    <glyph glyph-name="uni0212" unicode="&#x212;" horiz-adv-x="1479" 
d="M1051 0l-243 585h-441l-113 -585h-191l273 1409h612q214 0 341 -102t127 -268q0 -188 -108 -298t-319 -139l268 -602h-206zM857 736q181 0 273 75.5t92 212.5q0 112 -74.5 172t-222.5 60h-427l-101 -520h460zM905 1791q114 0 178 -63.5t65 -176.5l-1 -20h-105
q-2 61 -45 96.5t-116 35.5q-67 0 -126 -32.5t-87 -99.5h-104q39 119 129.5 189.5t211.5 70.5z" />
    <glyph glyph-name="uni0213" unicode="&#x213;" horiz-adv-x="682" 
d="M718 938q-44 13 -90 13q-105 0 -189.5 -110t-114.5 -277l-110 -564h-180l162 830l25 138l18 114h170l-35 -221h4q66 133 130 187t148 54q46 0 95 -14zM567 1466q114 0 178 -63.5t65 -176.5l-1 -20h-105q-2 61 -45 96.5t-116 35.5q-67 0 -126 -32.5t-87 -99.5h-104
q39 119 129.5 189.5t211.5 70.5z" />
    <glyph glyph-name="uni0214" unicode="&#x214;" horiz-adv-x="1479" 
d="M654 -20q-233 0 -367 120.5t-134 330.5q0 44 7.5 105.5t15.5 98.5l150 774h191l-162 -843q-17 -87 -17 -143q0 -136 87.5 -212t244.5 -76q384 0 461 406l168 868h190l-170 -879q-54 -273 -222 -411.5t-443 -138.5zM747 1530l-247 250l4 29h203l134 -259l-4 -20h-90z
M1078 1530l-247 250l4 29h203l134 -259l-4 -20h-90z" />
    <glyph glyph-name="uni0215" unicode="&#x215;" 
d="M415 1082l-126 -645q-18 -88 -18 -150q0 -167 179 -167q126 0 222 96t128 260l118 606h180l-166 -851q-20 -95 -39 -231h-170q0 11 10.5 77.5t17.5 107.5h-3q-83 -115 -166.5 -159.5t-198.5 -44.5q-148 0 -222.5 73t-74.5 211q0 64 21 164l127 653h181zM522 1191
l-247 250l4 29h203l134 -259l-4 -20h-90zM853 1191l-247 250l4 29h203l134 -259l-4 -20h-90z" />
    <glyph glyph-name="uni0216" unicode="&#x216;" horiz-adv-x="1479" 
d="M654 -20q-233 0 -367 120.5t-134 330.5q0 44 7.5 105.5t15.5 98.5l150 774h191l-162 -843q-17 -87 -17 -143q0 -136 87.5 -212t244.5 -76q384 0 461 406l168 868h190l-170 -879q-54 -273 -222 -411.5t-443 -138.5zM973 1790q114 0 178 -63.5t65 -176.5l-1 -20h-105
q-2 61 -45 96.5t-116 35.5q-67 0 -126 -32.5t-87 -99.5h-104q39 119 129.5 189.5t211.5 70.5z" />
    <glyph glyph-name="uni0217" unicode="&#x217;" 
d="M415 1082l-126 -645q-18 -88 -18 -150q0 -167 179 -167q126 0 222 96t128 260l118 606h180l-166 -851q-20 -95 -39 -231h-170q0 11 10.5 77.5t17.5 107.5h-3q-83 -115 -166.5 -159.5t-198.5 -44.5q-148 0 -222.5 73t-74.5 211q0 64 21 164l127 653h181zM726 1466
q114 0 178 -63.5t65 -176.5l-1 -20h-105q-2 61 -45 96.5t-116 35.5q-67 0 -126 -32.5t-87 -99.5h-104q39 119 129.5 189.5t211.5 70.5z" />
    <glyph glyph-name="Scommaaccent" unicode="&#x218;" horiz-adv-x="1366" 
d="M616 -20q-249 0 -386.5 88.5t-171.5 269.5l177 37q27 -129 120 -187t275 -58q219 0 320 65.5t101 200.5q0 67 -29 107.5t-99 73t-241 80.5q-171 47 -255.5 96.5t-128 119.5t-43.5 168q0 182 153.5 285.5t415.5 103.5q220 0 353 -76t167 -222l-173 -51q-33 105 -118.5 155
t-229.5 50q-376 0 -376 -236q0 -60 25.5 -98t84 -66.5t232.5 -75.5q195 -54 280.5 -104t131 -121.5t45.5 -176.5q0 -206 -155 -317t-475 -111zM580 -455h-117q114 101 131 190h-88l32 167h195l-20 -106q-17 -87 -50.5 -145.5t-82.5 -105.5z" />
    <glyph glyph-name="scommaaccent" unicode="&#x219;" horiz-adv-x="1024" 
d="M907 317q0 -162 -124 -249.5t-358 -87.5q-174 0 -276.5 58.5t-143.5 184.5l147 56q33 -88 102.5 -128t186.5 -40q143 0 217 48.5t74 141.5q0 62 -51 103.5t-216 92.5q-128 42 -192 82t-98 93.5t-34 124.5q0 145 116 223.5t327 78.5q354 0 398 -255l-163 -25
q-22 79 -83 114t-164 35q-124 0 -190.5 -39.5t-66.5 -111.5q0 -42 21 -71t60.5 -51.5t182.5 -67.5q127 -40 191.5 -81t100.5 -97t36 -132zM394 -455h-117q114 101 131 190h-88l32 167h195l-20 -106q-17 -87 -50.5 -145.5t-82.5 -105.5z" />
    <glyph glyph-name="uni021A" unicode="&#x21a;" horiz-adv-x="1251" 
d="M858 1253l-244 -1253h-190l244 1253h-484l30 156h1158l-30 -156h-484zM445 -455h-117q114 101 131 190h-88l32 167h195l-20 -106q-17 -87 -50.5 -145.5t-82.5 -105.5z" />
    <glyph glyph-name="uni021B" unicode="&#x21b;" horiz-adv-x="569" 
d="M275 -20q-85 0 -133.5 51t-48.5 135q0 55 15 130l126 655h-125l26 131h127l105 242h120l-47 -242h200l-26 -131h-200l-125 -645q-12 -60 -12 -95q0 -88 90 -88q42 0 100 14l-19 -133q-99 -24 -173 -24zM176 -455h-117q114 101 131 190h-88l32 167h195l-20 -106
q-17 -87 -50.5 -145.5t-82.5 -105.5z" />
    <glyph glyph-name="uni021C" unicode="&#x21c;" horiz-adv-x="1116" 
d="M-70 -427l32 166q397 104 609.5 277.5t212.5 401.5q0 110 -45 167q-206 -138 -668 -281l33 173q427 126 614 261.5t187 317.5q0 98 -64 155.5t-177 57.5q-112 0 -196 -43t-165 -149l-135 89q114 144 232.5 204.5t285.5 60.5q185 0 297 -97.5t112 -258.5q0 -228 -209 -386
q91 -112 91 -259q0 -295 -264.5 -512.5t-782.5 -344.5z" />
    <glyph glyph-name="uni021D" unicode="&#x21d;" horiz-adv-x="894" 
d="M-105 -426l29 155q335 76 485 198t150 296q0 96 -39 143q-70 -39 -216.5 -88.5t-288.5 -80.5l29 148q239 63 339 106t163 93t97 111t34 136q0 80 -43.5 129t-123.5 49q-89 0 -154.5 -46t-116.5 -148l-156 50q58 137 166 207t275 70q159 0 246 -79t87 -217
q0 -105 -42 -185.5t-143 -156.5q71 -100 71 -236q0 -240 -210 -405t-638 -249z" />
    <glyph glyph-name="uni021E" unicode="&#x21e;" horiz-adv-x="1479" 
d="M1021 0l127 653h-767l-127 -653h-191l274 1409h191l-116 -596h767l116 596h186l-274 -1409h-186zM1028 1530h-204l-187 239l4 21h93l205 -139h2l246 139h116l-4 -21z" />
    <glyph glyph-name="uni021F" unicode="&#x21f;" 
d="M383 897q83 115 166.5 159.5t198.5 44.5q148 0 222.5 -73t74.5 -211q0 -64 -21 -164l-127 -653h-181l126 645q18 88 18 150q0 167 -179 167q-126 0 -222 -96t-128 -260l-118 -606h-179l288 1484h180l-75 -386q-18 -100 -47 -201h3zM821 1563h-204l-181 270l4 20h97
l199 -169h2l252 169h112l-4 -20z" />
    <glyph glyph-name="uni0220" unicode="&#x220;" horiz-adv-x="1370" 
d="M837 -425l264 1349q14 70 14 124q0 109 -54 167.5t-178 58.5q-95 0 -194.5 -54t-170.5 -143.5t-90 -185.5l-173 -891h-191l212 1092l57 317h183q-12 -91 -41 -251h4q90 137 207.5 204t252.5 67q175 0 270 -89t95 -268q0 -77 -17 -168l-260 -1329h-190z" />
    <glyph glyph-name="uni0221" unicode="&#x221;" horiz-adv-x="1286" 
d="M401 -21q-157 0 -244.5 94.5t-87.5 259.5q0 203 61.5 393.5t173 282.5t284.5 92q123 0 200.5 -52t109.5 -146h5l28 162l82 419h180l-245 -1261l-30 -159q63 23 118 23q114 0 176 -62.5t62 -170.5q0 -131 -80.5 -205t-223.5 -74q-105 0 -169.5 52.5t-84.5 141.5
q-80 -75 -175 -176l-101 98q135 154 281 265l41 213h-3q-74 -101 -157 -145.5t-201 -44.5zM453 118q99 0 169.5 40.5t119.5 122t77 204t28 219.5q0 125 -63.5 194.5t-176.5 69.5q-124 0 -196 -75.5t-113 -240t-41 -287.5t47 -185t149 -62zM981 -281q57 0 95 32.5t38 93.5
q0 45 -26 71t-70 26q-70 0 -141 -49l-5 -54q0 -55 29.5 -87.5t79.5 -32.5z" />
    <glyph glyph-name="uni0222" unicode="&#x222;" horiz-adv-x="1238" 
d="M820 1430q193 -6 297.5 -88t104.5 -228q0 -143 -93.5 -244t-244.5 -130l-1 -4q117 -23 182 -98t65 -191q0 -218 -161.5 -342.5t-434.5 -124.5q-223 0 -345 94.5t-122 258.5q0 160 99 268.5t276 136.5l1 4q-221 63 -221 229q0 153 135.5 237t375.5 84l-25 -130
q-152 -3 -227.5 -56t-75.5 -143q0 -75 70.5 -115t202.5 -40q117 0 196 40t120 108t41 152q0 81 -57.5 132t-183.5 56zM548 120q186 0 291 86t105 242q0 109 -74.5 166.5t-220.5 57.5q-179 0 -287.5 -89.5t-108.5 -234.5q0 -113 76 -170.5t219 -57.5z" />
    <glyph glyph-name="uni0223" unicode="&#x223;" horiz-adv-x="1238" 
d="M688 874q93 0 161.5 38t108.5 113t40 163q0 122 -106 189l90 113q198 -104 198 -301q0 -139 -82 -241t-227 -145l-1 -4q103 -28 160 -107t57 -191q0 -243 -153 -382t-414 -139q-200 0 -312 98t-112 268q0 120 46.5 217.5t129.5 163.5t189 91l1 4q-181 73 -181 253
q0 283 338 415l64 -113q-221 -106 -221 -304q0 -95 60 -147t166 -52zM648 743q-108 0 -191 -52t-129.5 -143t-46.5 -197q0 -230 258 -230q113 0 196 48.5t127.5 135t44.5 197.5q0 110 -69.5 175.5t-189.5 65.5z" />
    <glyph glyph-name="uni0224" unicode="&#x224;" horiz-adv-x="1251" 
d="M1041 1253h-765l30 156h1002l-27 -139l-1054 -1114h606q115 0 180.5 -55.5t65.5 -159.5t-58 -207l-143 45q40 75 40 128q0 49 -31 71t-96 22h-831l27 143z" />
    <glyph glyph-name="uni0225" unicode="&#x225;" horiz-adv-x="1024" 
d="M-44 0l27 137l797 806h-601l27 139h824l-27 -137l-799 -806h466q115 0 180.5 -57t65.5 -161q0 -60 -15 -103t-38 -84l-143 45q15 28 27.5 57t12.5 66q0 98 -127 98h-677z" />
    <glyph glyph-name="uni0226" unicode="&#x226;" horiz-adv-x="1366" 
d="M1061 0l-75 412h-639l-240 -412h-208l848 1409h217l292 -1409h-195zM830 1265q-13 -26 -37 -69t-362 -635h527l-102 553zM779 1530l34 172h180l-34 -172h-180z" />
    <glyph glyph-name="uni0227" unicode="&#x227;" 
d="M927 -10q-93 0 -135.5 38.5t-42.5 114.5l5 64h-6q-83 -126 -172 -176.5t-215 -50.5q-140 0 -227.5 84t-87.5 214q0 185 132.5 280t422.5 99l232 3q19 98 19 127q0 91 -53 134.5t-147 43.5q-119 0 -180 -42.5t-88 -129.5l-178 29q45 147 156.5 213.5t299.5 66.5
q171 0 270.5 -80t99.5 -215q0 -64 -19 -157l-74 -378q-11 -48 -11 -88q0 -73 81 -73q27 0 60 7l-14 -112q-66 -16 -128 -16zM809 536l-199 -4q-119 -3 -187 -21.5t-105.5 -47t-59 -72t-21.5 -105.5q0 -75 48.5 -122t125.5 -47q97 0 175 41.5t129 108.5t67 144zM603 1312
l34 172h180l-34 -172h-180z" />
    <glyph glyph-name="uni0228" unicode="&#x228;" horiz-adv-x="1366" 
d="M63 0l273 1409h1049l-30 -156h-858l-88 -452h798l-30 -154h-798l-95 -491h899l-30 -156h-1090zM686 -96q81 -5 121.5 -41t40.5 -95q0 -193 -303 -193q-50 0 -106 7l21 91q48 -6 88 -6q91 0 128.5 22t37.5 67q0 72 -119 72q-44 0 -58 -2l101 174h107z" />
    <glyph glyph-name="uni0229" unicode="&#x229;" 
d="M256 503q-6 -35 -9 -113q0 -133 66.5 -204t200.5 -71q97 0 176 48t123 131l138 -63q-73 -131 -185.5 -191t-272.5 -60q-201 0 -312.5 111.5t-111.5 313.5q0 201 71 360.5t200 248t290 88.5q205 0 319 -103t114 -291q0 -105 -24 -205h-783zM880 641l4 72q0 124 -64.5 190
t-185.5 66q-134 0 -225.5 -85.5t-128.5 -242.5h600zM524 -96q81 -5 121.5 -41t40.5 -95q0 -193 -303 -193q-50 0 -106 7l21 91q48 -6 88 -6q91 0 128.5 22t37.5 67q0 72 -119 72q-44 0 -58 -2l101 174h107z" />
    <glyph glyph-name="uni022A" unicode="&#x22a;" horiz-adv-x="1593" 
d="M938 1430q277 0 437.5 -157t160.5 -422q-5 -268 -112 -463.5t-293 -301.5t-422 -106q-284 0 -441 157.5t-157 435.5q0 239 105.5 439.5t294.5 309t427 108.5zM929 1276q-200 0 -339.5 -89t-213.5 -266t-74 -358q0 -209 106.5 -318.5t309.5 -109.5q197 0 335.5 86.5
t215 259.5t76.5 366q0 207 -108.5 318t-307.5 111zM1113 1458l36 184h163l-36 -184h-163zM680 1458l36 184h163l-36 -184h-163zM1300 1708h-548l25 127h548z" />
    <glyph glyph-name="uni022B" unicode="&#x22b;" 
d="M1074 683q0 -130 -40 -270.5t-114.5 -238t-182.5 -146t-246 -48.5q-196 0 -310 118t-114 321q4 204 74 362t194 239t307 81q210 0 321 -109.5t111 -308.5zM888 683q0 286 -248 286q-135 0 -216.5 -69.5t-126.5 -210.5t-45 -273q0 -148 64 -225.5t186 -77.5
q103 0 165.5 34.5t109.5 108t76.5 187.5t34.5 240zM799 1219l35 184h173l-35 -184h-173zM415 1219l35 184h175l-35 -184h-175zM1024 1516h-550l26 127h550z" />
    <glyph glyph-name="uni022C" unicode="&#x22c;" horiz-adv-x="1593" 
d="M938 1430q277 0 437.5 -157t160.5 -422q-5 -268 -112 -463.5t-293 -301.5t-422 -106q-284 0 -441 157.5t-157 435.5q0 239 105.5 439.5t294.5 309t427 108.5zM929 1276q-200 0 -339.5 -89t-213.5 -266t-74 -358q0 -209 106.5 -318.5t309.5 -109.5q197 0 335.5 86.5
t215 259.5t76.5 366q0 207 -108.5 318t-307.5 111zM1287 1708h-548l24 127h548zM1094 1475q-35 0 -66.5 11.5t-61.5 26t-58 26t-55 11.5q-45 0 -70.5 -17.5t-41.5 -57.5h-91q28 83 56 118.5t70 55.5t104 20q36 0 68.5 -11.5t62 -26t56.5 -26t53 -11.5q48 0 73 19t38 56h92
q-29 -83 -56.5 -119t-69 -55.5t-103.5 -19.5z" />
    <glyph glyph-name="uni022D" unicode="&#x22d;" 
d="M1074 683q0 -130 -40 -270.5t-114.5 -238t-182.5 -146t-246 -48.5q-196 0 -310 118t-114 321q4 204 74 362t194 239t307 81q210 0 321 -109.5t111 -308.5zM888 683q0 286 -248 286q-135 0 -216.5 -69.5t-126.5 -210.5t-45 -273q0 -148 64 -225.5t186 -77.5
q103 0 165.5 34.5t109.5 108t76.5 187.5t34.5 240zM838 1201q-42 0 -80 18.5t-72.5 41t-66.5 41t-63 18.5q-100 0 -142 -119h-90q47 152 107.5 210t143.5 58q44 0 82 -18.5t72.5 -41t65.5 -41t61 -18.5q101 0 141 119h92q-35 -109 -67 -159.5t-77 -79.5t-107 -29zM1024 1566
h-550l26 127h550z" />
    <glyph glyph-name="uni022E" unicode="&#x22e;" horiz-adv-x="1593" 
d="M938 1430q277 0 437.5 -157t160.5 -422q-5 -268 -112 -463.5t-293 -301.5t-422 -106q-284 0 -441 157.5t-157 435.5q0 239 105.5 439.5t294.5 309t427 108.5zM929 1276q-200 0 -339.5 -89t-213.5 -266t-74 -358q0 -209 106.5 -318.5t309.5 -109.5q197 0 335.5 86.5
t215 259.5t76.5 366q0 207 -108.5 318t-307.5 111zM863 1592l34 172h180l-34 -172h-180z" />
    <glyph glyph-name="uni022F" unicode="&#x22f;" 
d="M1074 683q0 -130 -40 -270.5t-114.5 -238t-182.5 -146t-246 -48.5q-196 0 -310 118t-114 321q4 204 74 362t194 239t307 81q210 0 321 -109.5t111 -308.5zM888 683q0 286 -248 286q-135 0 -216.5 -69.5t-126.5 -210.5t-45 -273q0 -148 64 -225.5t186 -77.5
q103 0 165.5 34.5t109.5 108t76.5 187.5t34.5 240zM586 1312l34 172h180l-34 -172h-180z" />
    <glyph glyph-name="uni0230" unicode="&#x230;" horiz-adv-x="1593" 
d="M938 1430q277 0 437.5 -157t160.5 -422q-5 -268 -112 -463.5t-293 -301.5t-422 -106q-284 0 -441 157.5t-157 435.5q0 239 105.5 439.5t294.5 309t427 108.5zM929 1276q-200 0 -339.5 -89t-213.5 -266t-74 -358q0 -209 106.5 -318.5t309.5 -109.5q197 0 335.5 86.5
t215 259.5t76.5 366q0 207 -108.5 318t-307.5 111zM861 1468l36 184h162l-36 -184h-162zM1268 1708h-548l25 127h548z" />
    <glyph glyph-name="uni0231" unicode="&#x231;" 
d="M1074 683q0 -130 -40 -270.5t-114.5 -238t-182.5 -146t-246 -48.5q-196 0 -310 118t-114 321q4 204 74 362t194 239t307 81q210 0 321 -109.5t111 -308.5zM888 683q0 286 -248 286q-135 0 -216.5 -69.5t-126.5 -210.5t-45 -273q0 -148 64 -225.5t186 -77.5
q103 0 165.5 34.5t109.5 108t76.5 187.5t34.5 240zM616 1232l34 172h180l-34 -172h-180zM1024 1516h-550l26 127h550z" />
    <glyph glyph-name="uni0232" unicode="&#x232;" horiz-adv-x="1366" 
d="M672 0h-190l115 584l-384 825h196l306 -674l560 674h214l-704 -825zM1161 1570h-550l26 127h550z" />
    <glyph glyph-name="uni0233" unicode="&#x233;" horiz-adv-x="1024" 
d="M16 -425q-72 0 -132 14l31 134q45 -8 77 -8q95 0 167.5 64t142.5 186l27 47l-217 1070h183l112 -598q15 -80 28 -170.5t14 -117.5q10 22 26 54t453 832h199l-626 -1082q-111 -193 -178.5 -270.5t-141 -116t-165.5 -38.5zM911 1236h-550l26 127h550z" />
    <glyph glyph-name="uni0234" unicode="&#x234;" horiz-adv-x="602" 
d="M321 1484h180l-277 -1419q58 22 115 22q114 0 176 -62.5t62 -170.5q0 -131 -80.5 -205t-223.5 -74q-105 0 -169.5 52.5t-84.5 141.5q-80 -75 -175 -176l-101 98q135 154 281 265zM284 -281q57 0 95 32.5t38 93.5q0 45 -26 71t-70 26q-70 0 -141 -49l-5 -54
q0 -55 29.5 -87.5t79.5 -32.5z" />
    <glyph glyph-name="uni0235" unicode="&#x235;" horiz-adv-x="1288" 
d="M427 -309q138 157 281 266l135 688q18 88 18 150q0 167 -179 167q-126 0 -222 -96t-128 -260l-118 -606h-180l166 851q20 95 39 231h170q0 -11 -10.5 -77.5t-17.5 -107.5h3q83 115 166.5 159.5t198.5 44.5q148 0 222.5 -73t74.5 -211q0 -64 -21 -164l-115 -588
q58 22 113 22q114 0 176 -62.5t62 -170.5q0 -131 -80.5 -205t-223.5 -74q-105 0 -169.5 52.5t-84.5 141.5q-80 -75 -175 -176zM968 -281q57 0 95 32.5t38 93.5q0 45 -26 71t-70 26q-70 0 -141 -49l-5 -54q0 -55 29.5 -87.5t79.5 -32.5z" />
    <glyph glyph-name="uni0236" unicode="&#x236;" horiz-adv-x="712" 
d="M-160 96q135 153 280 264l114 591h-125l26 131h127l105 242h120l-47 -242h200l-26 -131h-200l-92 -481q64 22 114 22q114 0 176 -62.5t62 -170.5q0 -132 -80 -205.5t-222 -73.5q-218 0 -256 194q-80 -75 -175 -176zM388 124q57 0 91.5 32.5t34.5 93.5q0 45 -26 71t-70 26
q-62 0 -129 -46q-7 -33 -7 -57q0 -58 28.5 -89t77.5 -31z" />
    <glyph glyph-name="j.dotless" unicode="&#x237;" horiz-adv-x="455" 
d="M-100 -425q-56 0 -129 14l23 136q52 -8 83 -8q59 0 88.5 42t47.5 134l231 1189h180l-237 -1216q-31 -158 -101 -224.5t-186 -66.5z" />
    <glyph glyph-name="uni0238" unicode="&#x238;" horiz-adv-x="1809" 
d="M388 -21q-157 0 -244.5 94.5t-87.5 259.5q0 203 61.5 393.5t173 282.5t284.5 92q123 0 200.5 -52t109.5 -146h5l28 162l82 419h180l-83 -423q-13 -63 -34 -140h4q73 95 154 138t200 43q157 0 244.5 -94.5t87.5 -259.5q0 -203 -61.5 -393.5t-173 -282.5t-284.5 -92
q-239 0 -306 197h-3l-44 -177h-165l30 160h-5q-73 -95 -154 -138t-199 -43zM440 118q99 0 169.5 40.5t119.5 122t77 204t28 219.5q0 125 -63.5 194.5t-176.5 69.5q-124 0 -196 -75.5t-113 -240t-41 -287.5t47 -185t149 -62zM1369 963q-99 0 -169.5 -40.5t-119.5 -122
t-77 -204t-28 -219.5q0 -125 63.5 -194.5t176.5 -69.5q122 0 193 72.5t114 237t43 293.5q0 123 -47 185t-149 62z" />
    <glyph glyph-name="uni0239" unicode="&#x239;" horiz-adv-x="1804" 
d="M1416 1103q157 0 244.5 -94.5t87.5 -259.5q0 -204 -61.5 -395t-172.5 -282t-283 -91q-240 0 -307 198h-5l-28 -162l-86 -442h-180l88 446q22 108 33 140h-4q-73 -95 -154 -138t-200 -43q-157 0 -244.5 94.5t-87.5 259.5q0 203 61.5 393.5t173 282.5t284.5 92
q239 0 306 -197h3l44 177h165l-30 -160h5q75 98 154 139.5t194 41.5zM1364 964q-132 0 -215.5 -75.5t-128.5 -227t-45 -283.5q0 -130 63 -197t172 -67q122 0 193 72.5t114 237t43 293.5q0 123 -47 185t-149 62zM440 119q99 0 169.5 40.5t119.5 122t77 204t28 219.5
q0 125 -63.5 194.5t-176.5 69.5q-124 0 -196 -75.5t-113 -240t-41 -287.5t47 -185t149 -62z" />
    <glyph glyph-name="uni023A" unicode="&#x23a;" horiz-adv-x="1366" 
d="M1050 991l206 -991h-195l-75 412h-399l-415 -519h-172l85 107h-186l848 1409h217l51 -246l280 351h174zM431 561h102l345 432l-48 272q-3 -8 -29.5 -56.5t-369.5 -647.5zM911 816l-205 -255h252zM165 99l249 313h-67z" />
    <glyph glyph-name="uni023B" unicode="&#x23b;" horiz-adv-x="1479" 
d="M1348 1300q104 -85 142 -215l-180 -55q-24 72 -77 127l-764 -956q99 -66 244 -66q148 0 276 73.5t226 217.5l143 -89q-126 -188 -286 -272.5t-372 -84.5q-202 0 -339 86l-139 -173h-172l207 259q-144 158 -144 417q0 246 105 445t291.5 307.5t416.5 108.5q174 0 305 -58
l114 142h174zM302 566q0 -158 71 -268l748 936q-88 40 -205 40q-184 0 -324 -88.5t-215 -249t-75 -370.5z" />
    <glyph glyph-name="uni023C" unicode="&#x23c;" horiz-adv-x="1024" 
d="M898 1013q93 -85 103 -229l-177 -25q-4 52 -23 94l-435 -711q45 -20 103 -20q100 0 171.5 55t117.5 175l156 -49q-121 -323 -449 -323q-102 0 -179 31l-266 -436h-155l310 509q-108 108 -108 311q0 200 72.5 372t192 253.5t293.5 81.5q83 0 157 -24l248 406h156zM251 389
q0 -86 22 -144l429 702q-37 14 -83 14q-126 0 -204 -67.5t-121 -214.5t-43 -290z" />
    <glyph glyph-name="uni023D" unicode="&#x23d;" 
d="M78 810h142l116 599h191l-116 -599h399l-31 -156h-399l-96 -498h712l-30 -156h-903l126 654h-142z" />
    <glyph glyph-name="uni023E" unicode="&#x23e;" horiz-adv-x="1251" 
d="M1306 1409h66l-30 -156h-161l-427 -534l-140 -719h-190l79 405l-410 -512h-172l637 798l110 562h-484l30 156h918l84 105h174zM810 1005l197 248h-149z" />
    <glyph glyph-name="uni023F" unicode="&#x23f;" horiz-adv-x="1024" 
d="M907 317q0 -163 -124 -250t-358 -87q-55 0 -119 10l138 -188q55 -75 129 -75q60 0 133 57l80 -112q-102 -98 -235 -98q-47 0 -84 11.5t-68.5 34t-61 57.5t-152 214t-179.5 288l150 87q45 -90 106 -122.5t179 -32.5q143 0 217 48.5t74 141.5q0 42 -22 72.5t-65.5 55
t-179.5 68.5q-128 42 -192 82t-98 93.5t-34 124.5q0 145 116 223.5t327 78.5q354 0 398 -255l-163 -25q-22 79 -83 114t-164 35q-124 0 -190.5 -39.5t-66.5 -111.5q0 -42 21 -71t60.5 -51.5t182.5 -67.5q127 -40 191.5 -81t100.5 -97t36 -132z" />
    <glyph glyph-name="uni0240" unicode="&#x240;" horiz-adv-x="1024" 
d="M202 138q53 -2 90.5 -15t66.5 -38.5t75 -93.5q86 -132 130.5 -200t99.5 -64q53 0 125 68l84 -113q-115 -108 -236 -108q-69 0 -122.5 32.5t-111.5 124.5l-122 193q-29 45 -61 60.5t-107 15.5h-156l26 137l797 806h-601l27 139h824l-27 -137l-799 -806z" />
    <glyph glyph-name="uni0241" unicode="&#x241;" horiz-adv-x="1189" 
d="M344 0l104 536q48 -14 124 -14q122 0 220.5 59t152 166.5t53.5 247.5q0 137 -76.5 215.5t-212.5 78.5q-134 0 -230.5 -60.5t-142.5 -174.5l-170 29q130 347 555 347q228 0 347 -111.5t119 -323.5q0 -271 -158.5 -437t-430.5 -178l-74 -380h-180z" />
    <glyph glyph-name="uni0242" unicode="&#x242;" horiz-adv-x="928" 
d="M261 0l84 432q111 0 194.5 41t127.5 117.5t44 173.5t-52.5 147t-140.5 50q-192 0 -257 -196l-173 14q105 323 442 323q170 0 269.5 -89.5t99.5 -242.5q0 -182 -102.5 -300.5t-294.5 -155.5l-61 -314h-180z" />
    <glyph glyph-name="uni0243" unicode="&#x243;" horiz-adv-x="1366" 
d="M129 341h-135l26 133h135l181 935h510q209 0 329.5 -86.5t120.5 -235.5q0 -285 -339 -344q138 -23 214 -104.5t76 -199.5q0 -213 -156 -326t-433 -113h-595zM345 474h349l-26 -133h-349l-36 -188h368q210 0 307.5 73.5t97.5 215.5q0 107 -79.5 163t-228.5 56h-366z
M411 810h331q355 0 355 258q0 188 -268 188h-331z" />
    <glyph glyph-name="uni0244" unicode="&#x244;" horiz-adv-x="1479" 
d="M93 809h116l117 600h191l-115 -600h781l116 600h190l-116 -600h117l-29 -153h-118l-24 -126q-52 -272 -221 -411t-444 -139q-232 0 -366.5 120t-134.5 331q0 83 27 225h-116zM670 135q384 0 461 406l22 115h-781l-17 -90q-17 -87 -17 -143q0 -136 87.5 -212t244.5 -76z
" />
    <glyph glyph-name="uni0245" unicode="&#x245;" horiz-adv-x="1366" 
d="M1253 1h-195l-195 992q-19 97 -35 249q-66 -136 -133 -249l-583 -992h-206l848 1409h198z" />
    <glyph glyph-name="uni0246" unicode="&#x246;" horiz-adv-x="1366" 
d="M360 0l-149 -225h-158l149 225h-139l273 1409h802l97 145h159l-97 -145h88l-30 -156h-162l-300 -452h314l-30 -154h-387l-326 -491h719l-30 -156h-793zM409 801h325l301 452h-538zM284 156h22l326 491h-253z" />
    <glyph glyph-name="uni0247" unicode="&#x247;" 
d="M605 503l-228 -362q57 -26 137 -26q94 0 172 45t127 134l138 -63q-79 -136 -191 -193.5t-267 -57.5q-111 0 -196 35l-278 -440h-155l322 511q-117 111 -117 319q0 201 71 360.5t200 248t290 88.5q101 0 181 -26l258 408h156l-296 -469q134 -104 134 -307q0 -105 -24 -205
h-434zM537 641l198 314q-47 14 -101 14q-134 0 -225.5 -85.5t-128.5 -242.5h257zM247 390q0 -93 33 -156l170 269h-194q-9 -56 -9 -113zM884 713q0 101 -43 164l-149 -236h188z" />
    <glyph glyph-name="uni0248" unicode="&#x248;" horiz-adv-x="1024" 
d="M473 809h261l86 444h-291l30 156h481l-118 -600h138l-29 -152h-138l-46 -234q-45 -228 -159 -335.5t-307 -107.5q-159 0 -259.5 93t-126.5 270l168 33q23 -117 79 -179t156 -62q105 0 170 73.5t95 231.5l42 217h-261z" />
    <glyph glyph-name="uni0249" unicode="&#x249;" horiz-adv-x="455" 
d="M-100 -425q-56 0 -129 14l23 136q52 -8 83 -8q59 0 88.5 42t47.5 134l115 591h-112l26 133h112l90 465h180l-91 -465h112l-26 -133h-112l-120 -618q-31 -158 -101 -224.5t-186 -66.5zM289 1312l33 172h180l-33 -172h-180z" />
    <glyph glyph-name="uni024A" unicode="&#x24a;" horiz-adv-x="1546" 
d="M1201 -173q0 -49 23 -69.5t67 -20.5q20 0 52.5 4.5t47.5 9.5l-31 -162q-62 -14 -139 -14q-213 0 -213 202q0 20 3 48t46 246q-153 -91 -357 -91q-185 0 -317.5 70.5t-201 201t-68.5 303.5q0 258 106.5 458t303 308.5t450.5 108.5q194 0 340 -77l161 56h31l-297 -1524
q-7 -40 -7 -58zM714 133q239 0 376 103l182 941q-96 100 -329 100q-188 0 -334 -90t-226.5 -253t-80.5 -368q0 -202 111.5 -317.5t300.5 -115.5z" />
    <glyph glyph-name="uni024B" unicode="&#x24b;" 
d="M874 -173q0 -49 23 -69.5t67 -20.5q38 0 88 12l-32 -162q-51 -12 -126 -12q-94 0 -149.5 49.5t-55.5 143.5q0 60 16 139t54 253h-4q-73 -95 -154 -138t-200 -43q-157 0 -244.5 94.5t-87.5 259.5q0 203 61.5 393.5t173 282.5t284.5 92q123 0 200.5 -52t109.5 -146h5
q11 54 27 118t22 75h173q-23 -78 -65 -295l-179 -916q-7 -40 -7 -58zM453 118q99 0 169.5 40.5t119.5 122t77 204t28 219.5q0 125 -63.5 194.5t-176.5 69.5q-124 0 -196 -75.5t-113 -240t-41 -287.5t47 -185t149 -62z" />
    <glyph glyph-name="uni024C" unicode="&#x24c;" horiz-adv-x="1479" 
d="M1051 0l-243 585h-441l-113 -585h-191l114 585h-168l29 150h168l130 674h612q211 0 339.5 -101.5t128.5 -268.5q0 -188 -108 -298t-319 -139l268 -602h-206zM857 736q181 0 273 75.5t92 212.5q0 112 -74.5 172t-222.5 60h-427l-101 -520h460z" />
    <glyph glyph-name="uni024D" unicode="&#x24d;" horiz-adv-x="682" 
d="M718 938q-44 13 -90 13q-92 0 -169.5 -86.5t-119.5 -232.5h181l-29 -146h-182l-95 -486h-180l95 486h-123l29 146h122q69 350 82 450h170l-35 -221h4q66 133 130 187t148 54q39 0 95 -14z" />
    <glyph glyph-name="uni024E" unicode="&#x24e;" horiz-adv-x="1366" 
d="M1292 1179h152l-28 -146h-248l-383 -449l-113 -584h-190l115 584l-209 449h-238l28 146h142l-107 230h196l104 -230h571l191 230h214zM715 735l247 298h-382z" />
    <glyph glyph-name="uni024F" unicode="&#x24f;" horiz-adv-x="1024" 
d="M929 741h111l-29 -146h-166l-344 -595q-111 -193 -178.5 -270.5t-141 -116t-165.5 -38.5q-72 0 -132 14l31 134q45 -8 77 -8q87 0 159.5 57t150.5 193l27 47l-118 583h-163l29 146h104l-69 341h183l64 -341h383l186 341h199zM449 196q12 27 31.5 64t182.5 335h-277
q58 -306 63 -399z" />
    <glyph glyph-name="uni0250" unicode="&#x250;" 
d="M212 1092q93 0 135.5 -38.5t42.5 -114.5l-5 -64h6q83 126 172 176.5t215 50.5q140 0 227.5 -84t87.5 -214q0 -185 -132.5 -280t-422.5 -99l-232 -3q-19 -98 -19 -127q0 -91 53 -134.5t147 -43.5q119 0 180 42.5t88 129.5l178 -29q-45 -147 -156.5 -213.5t-299.5 -66.5
q-171 0 -270.5 80t-99.5 215q0 64 19 157l74 378q11 48 11 88q0 73 -81 73q-27 0 -60 -7l14 112q66 16 128 16zM330 546l199 4q119 3 187 21.5t105.5 47t59 72t21.5 105.5q0 75 -48.5 122t-125.5 47q-96 0 -174 -41t-129.5 -109t-67.5 -144z" />
    <glyph glyph-name="uni0251" unicode="&#x251;" 
d="M401 -21q-157 0 -244.5 94.5t-87.5 259.5q0 203 61.5 393.5t173 282.5t284.5 92q123 0 200.5 -52t109.5 -146h5l33 179h179l-167 -859l-33 -192l-5 -31h-172q0 51 21 160h-5q-73 -95 -154 -138t-199 -43zM453 118q99 0 169.5 40.5t119.5 122t77 204t28 219.5
q0 125 -63.5 194.5t-176.5 69.5q-124 0 -196 -75.5t-113 -240t-41 -287.5t47 -185t149 -62z" />
    <glyph glyph-name="uni0252" unicode="&#x252;" 
d="M554 -20q-123 0 -200.5 52t-109.5 146h-5l-29 -178h-178l167 861q22 124 33 221h168q0 -11 -5 -67.5t-12 -93.5h4q73 95 154 138t200 43q157 0 244.5 -94.5t87.5 -259.5q0 -203 -61.5 -393.5t-173 -282.5t-284.5 -92zM689 963q-99 0 -169.5 -40.5t-119.5 -122t-77 -204
t-28 -219.5q0 -125 63.5 -194.5t176.5 -69.5q122 0 193 72.5t114 237t43 293.5q0 123 -47 185t-149 62z" />
    <glyph glyph-name="uni0253" unicode="&#x253;" 
d="M744 1102q157 0 244.5 -94.5t87.5 -259.5q0 -203 -61.5 -393.5t-173 -282.5t-284.5 -92q-123 0 -200 52t-109 146h-3q-5 -26 -43 -178h-173q8 25 49 223l193 998q25 132 104 204.5t200 72.5q70 0 125 -21l-29 -151q-47 20 -79 20q-63 0 -99.5 -46.5t-55.5 -146.5
q-29 -151 -51 -232h4q73 95 154 138t200 43zM692 963q-99 0 -169.5 -40.5t-119.5 -122t-77 -204t-28 -219.5q0 -125 63.5 -194.5t176.5 -69.5q122 0 193 72.5t114 237t43 293.5q0 123 -47 185t-149 62z" />
    <glyph glyph-name="uni0254" unicode="&#x254;" horiz-adv-x="1024" 
d="M556 960q-205 0 -289 -230l-156 49q121 323 449 323q192 0 295 -109t103 -306q0 -200 -72.5 -372t-192 -253.5t-293.5 -81.5q-169 0 -267.5 85t-108.5 233l177 25q6 -97 60 -149.5t145 -52.5q127 0 204.5 67.5t120.5 214.5t43 290q0 267 -218 267z" />
    <glyph glyph-name="uni0255" unicode="&#x255;" horiz-adv-x="1024" 
d="M496 -20q-172 0 -289 86q-103 -124 -126 -158l-116 92q62 77 157 180q-55 91 -55 245q0 111 39 247.5t111 235t173 146.5t239 48q110 0 192.5 -40t129 -113t50.5 -165l-177 -25q-7 96 -59.5 149t-144.5 53q-128 0 -205.5 -67.5t-120.5 -215.5t-43 -266q0 -50 9 -92
q112 99 206.5 144.5t192.5 45.5q117 0 184 -56t67 -155q0 -94 -48 -166t-140.5 -112.5t-225.5 -40.5zM502 114q119 0 188 47t69 123q0 88 -112 88q-150 0 -330 -185q28 -34 78 -53.5t107 -19.5z" />
    <glyph glyph-name="uni0256" unicode="&#x256;" 
d="M401 -21q-157 0 -244.5 94.5t-87.5 259.5q0 203 61.5 393.5t173 282.5t284.5 92q123 0 200.5 -52t109.5 -146h5l28 162l82 419h180l-313 -1608q-5 -28 -5 -50q0 -93 95 -93q56 0 108 13l-30 -158q-69 -13 -134 -13q-103 0 -161.5 59t-58.5 164q0 40 9 88l55 274h-2
q-77 -98 -158 -139.5t-197 -41.5zM453 118q99 0 169.5 40.5t119.5 122t77 204t28 219.5q0 125 -63.5 194.5t-176.5 69.5q-124 0 -196 -75.5t-113 -240t-41 -287.5t47 -185t149 -62z" />
    <glyph glyph-name="uni0257" unicode="&#x257;" 
d="M401 -21q-157 0 -244.5 94.5t-87.5 259.5q0 203 61.5 393.5t173 282.5t284.5 92q123 0 200.5 -52t109.5 -146h5l28 162l32 153q28 131 103 205.5t200 74.5q70 0 125 -21l-29 -151q-47 20 -79 20q-63 0 -99 -46t-56 -147l-180 -930l-33 -192l-5 -31h-172q0 51 21 160h-5
q-73 -95 -154 -138t-199 -43zM453 118q99 0 169.5 40.5t119.5 122t77 204t28 219.5q0 125 -63.5 194.5t-176.5 69.5q-124 0 -196 -75.5t-113 -240t-41 -287.5t47 -185t149 -62z" />
    <glyph glyph-name="uni0258" unicode="&#x258;" 
d="M77 503l4 24q98 575 581 575q193 0 295.5 -107.5t102.5 -306.5q0 -83 -14 -160q-93 -548 -586 -548q-161 0 -262 61t-134 195l153 46q46 -167 254 -167q145 0 242.5 98t135.5 290h-772zM874 641l3 59q0 127 -59.5 198t-170.5 71q-135 0 -223 -79t-134 -249h584z" />
    <glyph glyph-name="uni0259" unicode="&#x259;" 
d="M872 579q9 55 9 113q0 133 -66.5 204t-200.5 71q-97 0 -176 -48t-123 -131l-138 63q73 131 185.5 191t272.5 60q201 0 312.5 -111.5t111.5 -313.5q0 -201 -71 -360.5t-200 -248t-290 -88.5q-205 0 -319 103t-114 291q0 105 24 205h783zM248 441l-4 -72q0 -124 64.5 -190
t185.5 -66q134 0 225.5 85.5t128.5 242.5h-600z" />
    <glyph glyph-name="uni025A" unicode="&#x25a;" horiz-adv-x="1442" 
d="M881 724q-20 243 -266 243q-97 0 -176 -48t-123 -131l-138 63q55 94 117 145t147.5 78.5t199.5 27.5q175 0 284.5 -92.5t128.5 -256.5l164 27l2 -129q1 -72 23.5 -103.5t73.5 -31.5q55 0 131 35l38 -138q-103 -56 -207 -56q-106 0 -160.5 71t-55.5 191h-5
q-11 -192 -86.5 -338t-201.5 -223.5t-279 -77.5q-201 0 -313.5 105t-112.5 289q0 78 24 205zM245 374q0 -261 256 -261q156 0 254 124.5t115 340.5l-618 -110q-7 -45 -7 -94z" />
    <glyph glyph-name="uni025B" unicode="&#x25b;" horiz-adv-x="900" 
d="M401 116q106 0 186.5 40t150.5 108l88 -105q-94 -94 -197 -136.5t-240 -42.5q-165 0 -260 81t-95 217q0 123 88.5 205t232.5 96l1 2q-88 25 -138.5 85t-50.5 140q0 140 104 217.5t294 77.5q135 0 221 -41.5t138 -129.5l-135 -84q-41 63 -96.5 91t-130.5 28
q-99 0 -156.5 -46t-57.5 -123q0 -160 328 -160l-27 -141q-189 0 -270.5 -22t-120 -70t-38.5 -122q0 -75 51.5 -120t129.5 -45z" />
    <glyph glyph-name="uni025C" unicode="&#x25c;" horiz-adv-x="952" 
d="M383 -20q-169 0 -269 61t-127 193l168 44q40 -164 241 -164q113 0 174.5 52.5t61.5 148.5q0 93 -73 139.5t-231 46.5l28 134q187 0 271 49t84 145q0 69 -50 104t-132 35q-183 0 -227 -144l-165 20q38 129 136 193.5t271 64.5q159 0 255.5 -71t96.5 -188q0 -78 -39 -137
t-108 -96t-154 -46v-4q104 -12 166 -81.5t62 -165.5q0 -154 -116.5 -243.5t-323.5 -89.5z" />
    <glyph glyph-name="uni025D" unicode="&#x25d;" horiz-adv-x="1261" 
d="M386 -20q-169 0 -269 61t-127 193l168 44q40 -164 241 -164q113 0 174.5 52.5t61.5 148.5q0 93 -73 139.5t-231 46.5l28 134q187 0 271 49t84 145q0 69 -50 104t-132 35q-183 0 -227 -144l-165 20q38 129 136 193.5t271 64.5q132 0 222 -50.5t119 -138.5l122 20l2 -129
q1 -72 23.5 -103.5t73.5 -31.5q55 0 131 35l38 -138q-93 -56 -191 -56q-94 0 -150.5 52t-64.5 158h-3q-36 -66 -110.5 -107.5t-160.5 -48.5v-4q104 -12 166 -81.5t62 -165.5q0 -154 -116.5 -243.5t-323.5 -89.5z" />
    <glyph glyph-name="uni025E" unicode="&#x25e;" horiz-adv-x="1042" 
d="M254 413q0 -144 64 -222t187 -78q111 0 172 53.5t61 150.5q0 78 -51.5 122t-145.5 44h-82l27 141h76q118 0 187 52.5t69 146.5q0 68 -44.5 107t-126.5 39q-103 0 -173.5 -38.5t-119.5 -117t-74.5 -190.5t-25.5 -210zM656 1102q162 0 254 -70.5t92 -187.5
q0 -110 -76.5 -186.5t-211.5 -104.5q215 -48 215 -236q0 -156 -117 -246t-321 -90q-199 0 -310.5 117t-111.5 322q0 193 71 354.5t202.5 244.5t313.5 83z" />
    <glyph glyph-name="uni025F" unicode="&#x25f;" horiz-adv-x="569" 
d="M142 131l185 951h180l-185 -951h152l-26 -131h-152l-28 -145q-23 -112 -60.5 -168t-101 -84.5t-157.5 -28.5q-66 0 -123 16l25 134q41 -9 91 -9q62 0 96 33.5t54 131.5l24 120h-211l26 131h211z" />
    <glyph glyph-name="uni0260" unicode="&#x260;" 
d="M397 -425q-339 0 -393 252l163 42q35 -157 234 -157q142 0 220 73.5t110 241.5l34 174h-2q-57 -84 -105.5 -124.5t-108 -62.5t-139.5 -22q-155 0 -247.5 101.5t-92.5 265.5q0 133 37.5 287t102.5 256t158 150.5t220 48.5q117 0 200 -54t111 -148v4h5l30 165l32 150
q59 280 299 280q70 0 125 -21l-29 -151q-48 20 -79 20q-63 0 -99 -46t-56 -147l-216 -1122q-48 -242 -172 -349t-342 -107zM259 373q0 -121 52.5 -184.5t154.5 -63.5q108 0 196 78.5t136.5 215.5t48.5 285q0 125 -64 194.5t-176 69.5q-90 0 -150 -37t-101 -115.5t-69 -210
t-28 -232.5z" />
    <glyph glyph-name="uni0261" unicode="&#x261;" 
d="M397 -425q-339 0 -393 252l163 42q35 -157 234 -157q142 0 220 73.5t110 241.5l34 174h-2q-62 -89 -109.5 -128t-107 -60t-136.5 -21q-153 0 -246.5 100.5t-93.5 266.5q0 133 37.5 287t102.5 256t158 150.5t220 48.5q121 0 204.5 -57t107.5 -147h2q7 37 25 106.5t23 78.5
h171l-19 -82l-30 -142l-161 -827q-48 -242 -172 -349t-342 -107zM259 373q0 -121 52.5 -184.5t154.5 -63.5q108 0 196 78.5t136.5 215.5t48.5 285q0 125 -64 194.5t-176 69.5q-90 0 -150 -37t-101 -116t-69 -210.5t-28 -231.5z" />
    <glyph glyph-name="uni0262" unicode="&#x262;" horiz-adv-x="1127" 
d="M580 541h446l-82 -428q-174 -133 -418 -133q-217 0 -338.5 119t-121.5 324q0 127 35.5 254t111.5 225t183.5 149t237.5 51q164 0 270.5 -81t132.5 -229l-168 -27q-57 196 -244 196q-114 0 -198 -69.5t-129.5 -199t-45.5 -284.5q0 -138 73 -214t208 -76q146 0 248 59
l43 227h-271z" />
    <glyph glyph-name="uni0263" unicode="&#x263;" horiz-adv-x="1026" 
d="M337 157l-227 925h185l174 -757l460 757h201l-585 -931q28 -81 47 -151t19 -135q0 -137 -66.5 -213.5t-188.5 -76.5q-98 0 -157 59t-59 152q0 119 114 264zM364 -280q41 0 66 37t25 102q0 72 -37 178q-61 -85 -80 -117.5t-30 -63.5t-11 -57q0 -35 18 -57t49 -22z" />
    <glyph glyph-name="uni0264" unicode="&#x264;" horiz-adv-x="1263" 
d="M565 121q39 0 63 30.5t24 72.5q0 54 -13 99t-27 86l-41 -54q-73 -92 -73 -158q0 -35 18.5 -55.5t48.5 -20.5zM1058 1089q78 0 139 -50t99 -138l-116 -87q-31 64 -61 90.5t-66 26.5q-35 0 -64.5 -26t-63.5 -80l-195 -309q54 -132 67 -183.5t13 -94.5q0 -115 -69 -188.5
t-185 -73.5q-98 0 -157 56.5t-59 147.5q0 116 114 254l84 102l-76 289q-14 54 -30.5 80t-55.5 26q-73 0 -175 -129l-100 99q141 188 292 188q97 0 146 -47.5t78 -164.5l47 -199l47 98l67 113q62 105 127 152.5t153 47.5z" />
    <glyph glyph-name="uni0265" unicode="&#x265;" 
d="M415 1082l-126 -645q-18 -88 -18 -150q0 -167 179 -167q126 0 222 96t128 260l118 606h180l-293 -1507h-180l85 433q11 56 42 177h-4q-83 -115 -166.5 -159.5t-198.5 -44.5q-148 0 -222.5 73t-74.5 211q0 64 21 164l127 653h181z" />
    <glyph glyph-name="uni0266" unicode="&#x266;" 
d="M383 897q83 115 166.5 159.5t198.5 44.5q148 0 222.5 -73t74.5 -211q0 -64 -21 -164l-127 -653h-181l126 645q18 88 18 150q0 167 -179 167q-126 0 -222 -96t-128 -260l-118 -606h-179l237 1221q25 132 104 204.5t200 72.5q70 0 125 -21l-29 -151q-47 20 -79 20
q-63 0 -99.5 -46.5t-55.5 -146.5q-30 -161 -57 -256h3z" />
    <glyph glyph-name="uni0267" unicode="&#x267;" 
d="M860 795q0 167 -179 167q-126 0 -222 -96t-128 -260l-118 -606h-179l237 1221q25 132 104 204.5t200 72.5q70 0 125 -21l-29 -151q-47 20 -79 20q-63 0 -99.5 -46.5t-55.5 -146.5q-30 -161 -57 -256h3q83 115 166.5 159.5t198.5 44.5q148 0 222.5 -73t74.5 -211
q0 -64 -21 -164l-153 -786q-30 -155 -100.5 -223.5t-188.5 -68.5q-56 0 -129 14l23 136q52 -8 83 -8q59 0 88.5 42t47.5 134l147 752q18 88 18 150z" />
    <glyph glyph-name="uni0268" unicode="&#x268;" horiz-adv-x="455" 
d="M40 617h113l90 465h180l-91 -465h115l-26 -133h-115l-94 -484h-179l94 484h-113zM287 1312l34 172h180l-34 -172h-180z" />
    <glyph glyph-name="uni0269" unicode="&#x269;" horiz-adv-x="455" 
d="M244 227q0 -46 22.5 -65.5t67.5 -19.5q34 0 80 11l-32 -160q-48 -10 -97 -10q-104 0 -164.5 51t-60.5 159q0 43 12 101l153 788h180l-153 -789q-8 -40 -8 -66z" />
    <glyph glyph-name="uni026A" unicode="&#x26a;" horiz-adv-x="729" 
d="M372 140h207l-27 -140h-594l27 140h206l156 803h-206l27 139h594l-27 -139h-207z" />
    <glyph glyph-name="uni026B" unicode="&#x26b;" horiz-adv-x="455" 
d="M33 0l288 1484h180l-289 -1484h-179z" />
    <glyph glyph-name="uni026C" unicode="&#x26c;" horiz-adv-x="455" 
d="M33 0l117 601q-91 8 -144.5 63t-53.5 143q0 115 74.5 184.5t199.5 69.5h13l82 423h180l-147 -754h168l-25 -129h-168l-117 -601h-179zM76 820q0 -48 28 -69t68 -21h3l42 216h-5q-59 0 -97.5 -35.5t-38.5 -90.5z" />
    <glyph glyph-name="uni026D" unicode="&#x26d;" horiz-adv-x="455" 
d="M496 1484l-314 -1608l-5 -50q0 -93 95 -93q56 0 108 13l-30 -158q-69 -13 -134 -13q-103 0 -161.5 59t-58.5 164q0 40 9 88l311 1598h180z" />
    <glyph glyph-name="uni026E" unicode="&#x26e;" horiz-adv-x="1154" 
d="M33 0l288 1484h180l-78 -402h755l-34 -178l-443 -364q150 -21 237 -126t87 -264q0 -161 -76.5 -294.5t-209.5 -207t-302 -73.5q-383 0 -416 302l176 21q30 -182 247 -182q111 0 203.5 59.5t145 165t52.5 210.5q0 122 -78.5 191t-209.5 69h-82l28 144l460 386h-568
l-183 -941h-179z" />
    <glyph glyph-name="uni026F" unicode="&#x26f;" horiz-adv-x="1706" 
d="M1037 1082l-124 -634l-17 -95q-8 -46 -8 -79q0 -75 38 -114.5t124 -39.5q113 0 198 95.5t118 262.5l118 604h179l-166 -851q-20 -95 -39 -231h-170q10 95 28 185h-3q-73 -114 -146.5 -159t-175.5 -45q-121 0 -192 59.5t-85 172.5q-83 -130 -163.5 -181t-184.5 -51
q-135 0 -207.5 73t-72.5 211q0 64 21 164l127 653h178l-124 -634l-17 -95q-8 -46 -8 -79q0 -75 38 -114.5t124 -39.5q114 0 199 95.5t117 259.5l118 607h178z" />
    <glyph glyph-name="uni0270" unicode="&#x270;" horiz-adv-x="1706" 
d="M1313 185q-73 -114 -146.5 -159t-175.5 -45q-121 0 -192 59.5t-85 172.5q-83 -130 -163.5 -181t-184.5 -51q-135 0 -207.5 73t-72.5 211q0 64 21 164l127 653h178l-124 -634l-17 -95q-8 -46 -8 -79q0 -75 38 -114.5t124 -39.5q114 0 199 95.5t117 259.5l118 607h178
l-124 -634l-17 -95q-8 -46 -8 -79q0 -75 38 -114.5t124 -39.5q113 0 198 95.5t118 262.5l118 604h179l-293 -1507h-180l82 424l44 186h-3z" />
    <glyph glyph-name="uni0271" unicode="&#x271;" horiz-adv-x="1706" 
d="M660 0l124 634q25 119 25 174q0 75 -38 114.5t-124 39.5q-113 0 -198 -95.5t-118 -262.5l-118 -604h-179l166 851q20 95 39 231h170q0 -11 -10.5 -77.5t-17.5 -107.5h3q73 114 146.5 159t175.5 45q121 0 192 -59.5t85 -172.5q80 127 161 179.5t187 52.5q135 0 207.5 -73
t72.5 -211q0 -51 -22 -167l-150 -783q-30 -157 -100.5 -224.5t-187.5 -67.5q-56 0 -129 14l23 136q52 -8 83 -8q59 0 88.5 42t47.5 134l145 741q25 138 25 174q0 75 -38 114.5t-124 39.5q-114 0 -199 -95.5t-117 -259.5l-118 -607h-178z" />
    <glyph glyph-name="uni0272" unicode="&#x272;" 
d="M717 0l126 645q18 88 18 150q0 167 -179 167q-126 0 -222 -96t-128 -260l-144 -740q-30 -156 -100.5 -223.5t-187.5 -67.5q-56 0 -129 14l23 136q52 -8 83 -8q59 0 88.5 42t47.5 134l187 958q20 95 39 231h170q0 -11 -10.5 -77.5t-17.5 -107.5h3q83 115 166.5 159.5
t198.5 44.5q148 0 222.5 -73t74.5 -211q0 -64 -21 -164l-127 -653h-181z" />
    <glyph glyph-name="uni0273" unicode="&#x273;" 
d="M869 -174q0 -93 92 -93q56 0 108 13l-30 -158q-69 -13 -134 -13q-103 0 -161.5 59t-58.5 164q0 40 9 88l149 759q18 88 18 150q0 167 -179 167q-126 0 -222 -96t-128 -260l-118 -606h-180l166 851q20 95 39 231h170q0 -11 -10.5 -77.5t-17.5 -107.5h3q83 115 166.5 159.5
t198.5 44.5q148 0 222.5 -73t74.5 -211q0 -64 -21 -164l-151 -777q-5 -28 -5 -50z" />
    <glyph glyph-name="uni0274" unicode="&#x274;" horiz-adv-x="1193" 
d="M438 1082l329 -688q31 -62 45 -104l20 127l130 665h170l-210 -1082h-152l-336 702q-42 92 -53 129l-18 -127l-136 -704h-169l210 1082h170z" />
    <glyph glyph-name="uni0275" unicode="&#x275;" 
d="M1074 683q0 -130 -40 -270.5t-114.5 -238t-182.5 -146t-246 -48.5q-196 0 -310 117t-114 322q0 186 68 349.5t194.5 248t312.5 84.5q210 0 321 -109.5t111 -308.5zM866 494h-610l-4 -78q0 -148 64 -225.5t186 -77.5q105 0 170 38t113.5 118t80.5 225zM888 683
q0 286 -248 286q-149 0 -234 -85t-127 -259h607z" />
    <glyph glyph-name="uni0276" unicode="&#x276;" horiz-adv-x="1568" 
d="M1498 625l-25 -130h-451l-70 -362h510l-26 -133h-680l14 70q-107 -90 -280 -90q-196 0 -310 117t-114 322q0 186 68 349.5t194.5 248t312.5 84.5q205 0 300 -144l24 125h658l-26 -137h-487l-63 -320h451zM877 681q0 141 -63.5 214.5t-174.5 73.5q-135 0 -216.5 -69.5
t-126.5 -210.5t-45 -273q0 -148 64 -225.5t186 -77.5q132 0 210.5 73.5t122 223t43.5 271.5z" />
    <glyph glyph-name="uni0277" unicode="&#x277;" horiz-adv-x="1595" 
d="M896 589l-18 -96q-17 -91 -17 -162q0 -219 178 -219q128 0 210 124t82 317q0 120 -55.5 214t-159 146t-247.5 52q-188 0 -328 -73t-221 -220.5t-81 -326.5q0 -114 45.5 -173.5t131.5 -59.5q111 0 182.5 90t108.5 291l18 96h171zM880 1102q187 0 330 -65.5t221 -188.5
t78 -288q0 -169 -57 -301.5t-163.5 -205.5t-249.5 -73q-126 0 -202.5 62.5t-93.5 184.5q-100 -247 -351 -247q-154 0 -242.5 97.5t-88.5 271.5q0 221 100.5 393t288 266t430.5 94z" />
    <glyph glyph-name="uni0278" unicode="&#x278;" 
d="M295 -425l81 417q-143 30 -226.5 141t-83.5 286q0 176 63.5 337t180 247t282.5 96l75 385h164l-77 -393q158 -28 238.5 -132.5t80.5 -275.5q0 -172 -62.5 -340t-180.5 -259t-292 -102l-79 -407h-164zM887 683q0 227 -159 276l-164 -845q108 14 175.5 91t107.5 217.5
t40 260.5zM251 416q0 -114 38.5 -188.5t112.5 -100.5l164 838q-98 -16 -167.5 -89t-108.5 -205.5t-39 -254.5z" />
    <glyph glyph-name="uni0279" unicode="&#x279;" horiz-adv-x="682" 
d="M-43 144q44 -13 90 -13q72 0 132.5 50.5t105 138t66.5 198.5l110 564h180l-162 -830l-24 -138l-19 -114h-170l35 221h-4q-66 -133 -130 -187t-148 -54q-46 0 -95 14z" />
    <glyph glyph-name="uni027A" unicode="&#x27a;" horiz-adv-x="682" 
d="M-43 144q44 -13 90 -13q72 0 132.5 50.5t105 138t66.5 198.5l188 966h180l-240 -1232l-24 -138l-19 -114h-170l35 221h-4q-66 -133 -130 -187t-148 -54q-46 0 -95 14z" />
    <glyph glyph-name="uni027B" unicode="&#x27b;" horiz-adv-x="682" 
d="M-43 144q44 -13 90 -13q72 0 132.5 50.5t105 138t66.5 198.5l110 564h180l-235 -1206q-5 -28 -5 -50q0 -93 95 -93q56 0 108 13l-30 -158q-69 -13 -134 -13q-103 0 -161.5 59t-58.5 164q0 40 9 88l67 330h-2q-67 -131 -129 -183.5t-146 -52.5q-46 0 -95 14z" />
    <glyph glyph-name="uni027C" unicode="&#x27c;" horiz-adv-x="682" 
d="M718 938q-44 13 -90 13q-72 0 -132.5 -50.5t-105 -138t-66 -195t-192.5 -992.5h-180l244 1255l25 138l18 114h170l-35 -221h4q66 133 130 187t148 54q39 0 95 -14z" />
    <glyph glyph-name="uni027D" unicode="&#x27d;" horiz-adv-x="682" 
d="M718 938q-44 13 -90 13q-72 0 -132.5 -50.5t-105 -138t-66.5 -198.5l-134 -688q-5 -28 -5 -50q0 -93 92 -93q56 0 108 13l-30 -158q-69 -13 -134 -13q-100 0 -159.5 57.5t-59.5 165.5q0 40 9 88l185 944l25 138l18 114h170l-35 -221h4q66 133 130 187t148 54q39 0 95 -14
z" />
    <glyph glyph-name="uni027E" unicode="&#x27e;" horiz-adv-x="682" 
d="M24 0l133 686q40 208 155.5 312t315.5 104q70 0 114 -11l-32 -165q-44 11 -94 11q-122 0 -192 -71.5t-102 -236.5l-122 -629h-176z" />
    <glyph glyph-name="uni027F" unicode="&#x27f;" horiz-adv-x="682" 
d="M178 -425l199 1025q18 95 18 149q0 96 -42.5 142t-139.5 46q-60 0 -98 -10l32 165q42 10 98 10q159 0 246 -84.5t87 -246.5q0 -64 -15 -142l-205 -1054h-180z" />
    <glyph glyph-name="uni0280" unicode="&#x280;" horiz-adv-x="1094" 
d="M214 0h-180l210 1082h451q162 0 258.5 -73t96.5 -201q0 -150 -92 -241.5t-261 -116.5l267 -450h-209l-245 439h-211zM398 945l-72 -370h274q121 0 189.5 58.5t68.5 164.5q0 147 -201 147h-259z" />
    <glyph glyph-name="uni0281" unicode="&#x281;" horiz-adv-x="1094" 
d="M339 643h202l415 439h218l-442 -456q110 -22 169.5 -90t59.5 -172q0 -171 -123.5 -267.5t-341.5 -96.5h-462l210 1082h180zM511 137q125 0 193 59t68 164q0 147 -197 147h-263l-71 -370h270z" />
    <glyph glyph-name="uni0282" unicode="&#x282;" horiz-adv-x="1024" 
d="M907 317q0 -162 -124 -249.5t-358 -87.5q-182 0 -286 69l-31 -169q-7 -35 -7 -61q0 -82 102 -82q59 0 101 12l-32 -162q-55 -12 -105 -12q-115 0 -176.5 54.5t-61.5 156.5q0 38 9 85l67 352l147 56q33 -88 102.5 -128t186.5 -40q143 0 217 48.5t74 141.5q0 42 -22 72.5
t-65.5 55t-179.5 68.5q-128 42 -192 82t-98 93.5t-34 124.5q0 145 116 223.5t327 78.5q354 0 398 -255l-163 -25q-22 79 -83 114t-164 35q-124 0 -190.5 -39.5t-66.5 -111.5q0 -42 21 -71t60.5 -51.5t182.5 -67.5q127 -40 191.5 -81t100.5 -97t36 -132z" />
    <glyph glyph-name="uni0283" unicode="&#x283;" horiz-adv-x="595" 
d="M-118 -425q-80 0 -144 22l31 157q57 -24 107 -24q75 0 121 53.5t71 179.5l225 1156q37 187 128 276t241 89q77 0 147 -24l-32 -164q-60 30 -110 30q-151 0 -197 -233l-227 -1163q-36 -184 -121.5 -269.5t-239.5 -85.5z" />
    <glyph glyph-name="uni0284" unicode="&#x284;" horiz-adv-x="625" 
d="M139 131l193 988q37 187 128 276t241 89q77 0 147 -24l-32 -164q-60 30 -110 30q-151 0 -197 -233l-190 -962h173l-26 -131h-172l-27 -145q-29 -156 -105 -218t-214 -62q-74 0 -124 12l26 137l45 -5l46 -3q63 0 96.5 32.5t53.5 131.5l23 120h-191l26 131h190z" />
    <glyph glyph-name="uni0285" unicode="&#x285;" horiz-adv-x="593" 
d="M330 -425q-245 0 -245 239q0 51 15 130l149 767q12 70 12 104q0 129 -117 129q-66 0 -120 -27l32 167q48 18 135 18q122 0 188 -68t66 -196q0 -61 -15 -136l-145 -739q-15 -75 -15 -122q0 -55 22.5 -83t79.5 -28q56 0 122 24l-31 -160q-59 -19 -133 -19z" />
    <glyph glyph-name="uni0286" unicode="&#x286;" horiz-adv-x="712" 
d="M468 -398q-49 97 -104 161q-45 -97 -116.5 -142.5t-176.5 -45.5q-114 0 -182.5 62t-68.5 169q0 124 81.5 202.5t217.5 78.5q77 0 146 -29l207 1061q34 181 125 273t244 92q77 0 147 -24l-32 -164q-60 30 -110 30q-73 0 -123 -55t-74 -178l-224 -1145q99 -100 179 -268z
M110 -58q-56 0 -96 -36t-40 -92q0 -46 29.5 -70.5t72.5 -24.5q57 0 99 49.5t58 126.5q-49 47 -123 47z" />
    </font>
</defs>
</svg>
