<?xml version="1.0" standalone="no"?>
<!DOCTYPE svg PUBLIC "-//W3C//DTD SVG 1.1//EN" "http://www.w3.org/Graphics/SVG/1.1/DTD/svg11.dtd" >
<svg xmlns="http://www.w3.org/2000/svg" xmlns:xlink="http://www.w3.org/1999/xlink" version="1.1">
<metadata>
Created by FontForge 20170731 at Mon Aug 20 11:27:18 2012
 By Aleksey,,,
Copyright (c) 2011, Sorkin Type Co (www.sorkintype.com)with Reserved Font Name "Headland".This Font Software is licensed under the SIL Open Font License,Version 1.1. This license is available with a FAQ at:http://scripts.sil.org/OFL
</metadata>
<defs>
<font id="HeadlandOne-Regular" horiz-adv-x="1365" >
  <font-face 
    font-family="HeadlandOne"
    font-weight="400"
    font-stretch="normal"
    units-per-em="2048"
    panose-1="2 2 6 2 6 3 0 6 7 4"
    ascent="1638"
    descent="-410"
    x-height="1189"
    cap-height="1530"
    bbox="-60 -522 3078 2043"
    underline-thickness="142"
    underline-position="-312"
    unicode-range="U+0001-FB02"
  />
<missing-glyph horiz-adv-x="2351" 
 />
    <glyph glyph-name=".notdef" horiz-adv-x="2351" 
 />
    <glyph glyph-name=".null" horiz-adv-x="0" 
 />
    <glyph glyph-name="nonmarkingreturn" horiz-adv-x="640" 
 />
    <glyph glyph-name="uni0001" horiz-adv-x="0" 
 />
    <glyph glyph-name="uni0002" horiz-adv-x="0" 
 />
    <glyph glyph-name="uni0003" horiz-adv-x="0" 
 />
    <glyph glyph-name="uni0004" horiz-adv-x="0" 
 />
    <glyph glyph-name="uni0005" horiz-adv-x="0" 
 />
    <glyph glyph-name="uni0006" horiz-adv-x="0" 
 />
    <glyph glyph-name="uni0007" horiz-adv-x="0" 
 />
    <glyph glyph-name="uni0008" horiz-adv-x="0" 
 />
    <glyph glyph-name="uni0009" unicode="&#x9;" horiz-adv-x="0" 
 />
    <glyph glyph-name="uni0010" horiz-adv-x="0" 
 />
    <glyph glyph-name="uni0011" horiz-adv-x="0" 
 />
    <glyph glyph-name="uni0012" horiz-adv-x="0" 
 />
    <glyph glyph-name="uni0013" horiz-adv-x="0" 
 />
    <glyph glyph-name="uni0014" horiz-adv-x="0" 
 />
    <glyph glyph-name="uni0015" horiz-adv-x="0" 
 />
    <glyph glyph-name="uni0016" horiz-adv-x="0" 
 />
    <glyph glyph-name="uni0017" horiz-adv-x="0" 
 />
    <glyph glyph-name="uni0018" horiz-adv-x="0" 
 />
    <glyph glyph-name="uni0019" horiz-adv-x="0" 
 />
    <glyph glyph-name="space" unicode=" " horiz-adv-x="758" 
 />
    <glyph glyph-name="exclam" unicode="!" horiz-adv-x="684" 
d="M293 430l-22 -1l-65 1183q31 43 198 78q39 8 58 8l28 -51l-82 -1192q-47 -23 -115 -25zM181 129q0 66 47 111q48 46 96.5 46t78 -12.5t51.5 -33.5q47 -46 47 -111q0 -64 -47 -111t-114 -47q-64 0 -112 47q-47 45 -47 111z" />
    <glyph glyph-name="quotedbl" unicode="&#x22;" horiz-adv-x="1194" 
d="M680 1868h270l-64 -654h-142zM242 1868h270l-64 -654h-142z" />
    <glyph glyph-name="numbersign" unicode="#" horiz-adv-x="1537" 
d="M409 600h-285l22 131h287l61 327h-301l21 130h304l63 341h147l-63 -341h297l63 341h147l-63 -341h301l-20 -130h-305l-60 -327h314l-19 -130l-319 -1l-59 -319h-147l59 319h-297l-58 -319h-149zM878 731l60 327h-297l-60 -327h297z" />
    <glyph glyph-name="dollar" unicode="$" horiz-adv-x="1364" 
d="M174 32q9 96 9 350v77h142q15 -172 74 -254q81 -112 259 -112t258.5 74t80.5 203q0 145 -261 264q-71 32 -143 61.5t-145.5 74t-131.5 100.5q-128 127 -128 268q0 163 123 272.5t328 129.5l6 230h150l-6 -230l34 -4t49 -6q114 -14 176 -14t127 13v-421h-145
q-6 257 -186 308q-59 17 -147 17t-149.5 -22t-95.5 -58q-63 -65 -58 -180q5 -134 222 -243q61 -30 142.5 -65.5t168.5 -83.5t151 -105q136 -120 140 -272q2 -194 -142 -304q-131 -101 -345 -114l-15 -221h-153l15 224q-35 4 -68 10q-123 23 -165 30t-84.5 7t-78.5 -6z" />
    <glyph glyph-name="percent" unicode="%" horiz-adv-x="2216" 
d="M1371 1545h158l-700 -1545h-157zM528 660q-84 2 -151.5 31.5t-117.5 83.5q-109 118 -105 306q4 198 124 327q124 136 314 136q152 0 272 -128q116 -126 116 -282q0 -225 -137 -355q-128 -122 -315 -119zM484.5 783.5q37.5 -28.5 83.5 -28.5t84 24.5t65 68.5q56 91 56 243
q0 147 -59 253q-60 108 -148 108q-138 0 -186 -173q-17 -61 -17 -144.5t15 -152.5t42 -119.5t64.5 -79zM1242 408q2 94 34 178t89 146q124 136 314 136q152 0 271 -128q117 -126 117 -282q0 -223 -138 -356q-129 -123 -322 -117q-152 6 -257 120q-112 121 -108 303z
M1469 606q-17 -61 -19 -148t12.5 -156t41.5 -118q56 -104 150 -104t150 92q56 93 56 244q0 146 -58 252q-61 108 -150 108q-136 0 -183 -170z" />
    <glyph glyph-name="ampersand" unicode="&#x26;" horiz-adv-x="1881" 
d="M1805 629q5 -37 5 -61q0 -44 -27 -69q-60 -9 -203 -11q-52 -214 -238 -355q-198 -149 -469 -149q-294 0 -457 124q-157 120 -157 325t287 449q-113 113 -113 250q0 163 145 286q148 126 350 126q228 0 309 -106q28 -36 28 -72t-4.5 -61t-11.5 -49q-16 -53 -28 -67
q-16 -19 -73 -19t-57 16q0 109 -65 175q-62 64 -162 64q-79 0 -157 -59q-87 -66 -87 -152q0 -94 75 -186q20 -24 36.5 -36.5t24 -24t10.5 -21.5q5 -22 -5 -29q-168 -117 -238 -271q-28 -61 -28 -144t32 -157t89 -123q111 -97 304 -97q212 0 348 104q135 102 149 258
q-73 0 -149 1l-144 2q-70 1 -130 2l-101 3q-25 1 -47 1h-28q-32 0 -32 36t16 77.5t45.5 87t73 91.5t98.5 82q123 82 263 82q209 0 286 -173q29 -65 29 -164q155 5 208 14zM986 610q27 3 166 3h266q-30 119 -134 175q-41 22 -84 22t-67.5 -8.5t-44.5 -22.5q-72 -51 -102 -169
z" />
    <glyph glyph-name="quotesingle" unicode="'" horiz-adv-x="683" 
d="M206 1868h270l-64 -654h-142z" />
    <glyph glyph-name="parenleft" unicode="(" horiz-adv-x="1085" 
d="M698 -390q-196 189 -332 476q-153 327 -153 699q0 351 109 635q81 209 215 366q67 79 154 145q3 3 9.5 0.5t19.5 -13.5l23 -23q13 -13 27 -29q-267 -289 -333 -820q-15 -121 -15 -251t15 -242.5t39 -214.5q91 -376 295 -675l-63 -54z" />
    <glyph glyph-name="parenright" unicode=")" horiz-adv-x="1085" 
d="M364 1943q196 -189 332 -476q153 -327 153 -699q0 -351 -109 -635q-81 -209 -215 -366q-67 -79 -154 -145q-3 -3 -9.5 -0.5t-19.5 13.5l-23 23q-13 13 -27 29q267 289 333 820q15 121 15 251t-15 242.5t-39 214.5q-91 376 -295 675l63 54z" />
    <glyph glyph-name="asterisk" unicode="*" horiz-adv-x="1364" 
d="M718 1077q120 -211 120 -343.5t-109 -132.5q-61 0 -76 13q-22 19 -22 62l3 394q-131 -230 -274 -288q-24 -9 -49 -9q-57 0 -84 47.5t-27 67.5q0 30 44 56l353 202h-17q-226 0 -339 65l-29 19q-55 39 -55 87q0 23 17 54q32 59 70 59q21 0 48 -16l323 -187q-63 129 -86 221
t-23 113t3 45.5t15 44.5q27 47 92 47q79 0 92 -42q9 -26 9 -415q90 124 185 213q73 70 141 70q54 0 81.5 -47.5t27.5 -67t-12 -31t-86 -56.5l-289 -166q162 -14 249 -40.5t105 -36.5h-1q88 -47 88 -105q0 -24 -18 -55q-34 -58 -69 -58q-20 0 -69 27q-249 140 -278 157z" />
    <glyph glyph-name="plus" unicode="+" horiz-adv-x="1193" 
d="M167 669h335v362h186v-362h355l-19 -163h-336v-337h-186v337h-354z" />
    <glyph glyph-name="comma" unicode="," horiz-adv-x="512" 
d="M119 27.5q-30 41.5 -30 84t13 72t36 52.5q50 50 117 50q71 0 116 -54.5t45 -120.5t-17 -117.5t-43.5 -99.5t-58.5 -90.5t-63 -73.5q-66 -69 -89 -69q-54 0 -96 49l44 48q117 132 119 220q-63 8 -93 49.5z" />
    <glyph glyph-name="hyphen" unicode="-" horiz-adv-x="1031" 
d="M175 669h699l-20 -163h-699z" />
    <glyph glyph-name="period" unicode="." horiz-adv-x="512" 
d="M95 129q0 65 47 111q48 46 113 46t113 -46q47 -46 47 -111q0 -64 -47 -111t-113 -47t-113 47t-47 111z" />
    <glyph glyph-name="slash" unicode="/" horiz-adv-x="1023" 
d="M799 1668h158l-737 -1668h-156z" />
    <glyph glyph-name="zero" unicode="0" horiz-adv-x="1368" 
d="M147.5 392.5q-38.5 121.5 -38.5 236.5t18.5 203.5t53.5 167t85.5 145t115.5 113.5q139 102 290.5 102t256.5 -53t177 -143q150 -187 150 -473q0 -283 -161 -491q-104 -134 -257 -188q-77 -26 -187 -26t-215 52t-177.5 142.5t-111 212zM542 138q60 -42 140.5 -42t140 42.5
t98.5 119.5q78 154 78 423q0 411 -177 530q-59 40 -139.5 40t-140 -40t-98.5 -114q-78 -148 -78 -416q0 -416 176 -543z" />
    <glyph glyph-name="one" unicode="1" horiz-adv-x="855" 
d="M566 962l-1 -398v-304q0 -93 11 -114q19 -40 86 -40q56 0 146 18l-13 -124h-706l14 106h81q57 0 90.5 8t51.5 36q28 44 28 186v242l-1 340v107q0 127 -75 127q-59 0 -147 -44l-36 131l499 143q-28 -84 -28 -214v-206z" />
    <glyph glyph-name="two" unicode="2" horiz-adv-x="1364" 
d="M191 948q-18 168 -18 305v64q93 -4 197 19q199 44 300.5 44t187 -26.5t145.5 -77.5q123 -103 123 -289q0 -232 -310 -532q-60 -58 -120 -107l-113 -90q-52 -39 -91 -66l-57 -39h431q76 0 126 56q45 49 60 134h137q0 -81 -17.5 -195.5t-25.5 -147.5h-954q-25 6 -40 55
q-4 13 -4 24q24 16 113.5 84.5t171 139t162.5 152.5t145 169q146 198 146 358q0 131 -70 210q-69 79 -158 79t-147 -17t-97 -56q-81 -78 -79 -250h-144z" />
    <glyph glyph-name="three" unicode="3" 
d="M242 946q-10 148 -10 235.5t4 131.5q40 -4 86 5l97 21q163 40 246.5 40t163 -15.5t143.5 -52.5q146 -83 146 -257q0 -151 -148 -268q-45 -35 -95 -62q134 -26 223 -118q100 -104 100 -257q0 -186 -137 -341q-157 -177 -421 -177q-123 0 -265 39q-115 30 -172 30l-7 2
q-10 108 -10 174.5t12 179.5h147q0 -243 181 -304q55 -18 121 -18q133 0 223 104q90 106 90 274q0 130 -80 220q-83 92 -214 92q-79 0 -137 -30q-26 78 -26 98t5 24v2h9q147 2 255 85q115 88 115 216q0 175 -145 232q-48 19 -110 19t-107 -18t-75 -57q-61 -77 -61 -249h-147
z" />
    <glyph glyph-name="four" unicode="4" 
d="M794 -198q19 201 19 367h-717l-41 92l303 393l266 358q183 255 244 347q103 12 154 32v-1069h280l-33 -149l-247 1v-172q0 -49 3 -163l-72 -30q-74 -30 -126 -45zM813 322v739l-150 -227l-353 -512h503z" />
    <glyph glyph-name="five" unicode="5" 
d="M413 720q174 67 291.5 67t207.5 -25t156 -78q145 -114 145 -333q0 -243 -181 -387q-168 -133 -405 -133q-170 0 -323 55q-51 19 -88 44l21 117q82 -58 250 -83q57 -9 136 -9t149 30.5t115 82.5q87 99 87 261q0 145 -102 229q-97 78 -241 78t-276 -44l-96 34l58 733h552
q68 0 97 17q54 32 85 113h116q0 -127 -35 -241q-11 -38 -25 -62h-614z" />
    <glyph glyph-name="six" unicode="6" 
d="M136 450q-15 73 -15.5 183t29 232.5t80.5 221.5t119 176.5t145 135.5t158.5 98t159.5 65q146 49 266 51l24 -87q-247 -30 -442 -201q-197 -174 -269 -424q120 91 279 121q53 10 135 10t168.5 -35t146.5 -98q121 -129 121 -344q0 -240 -159 -404q-160 -166 -401 -166
q-271 0 -423 197q-90 117 -122 268zM553.5 144.5q60.5 -32.5 149 -32.5t152.5 29.5t99 82.5q60 92 60 299q0 255 -186 333q-63 26 -120 26t-97.5 -8.5t-84.5 -24.5q-101 -37 -164 -94q-5 -38 -5 -137t24 -202.5t68 -171t104.5 -100z" />
    <glyph glyph-name="seven" unicode="7" 
d="M1032 1184q-13 0 -54 -0.5t-97 -1t-121 -0.5l-124 -2q-60 0 -110 -0.5t-88 -0.5t-71 -13.5t-55 -39.5q-36 -41 -72 -153h-108q17 172 29 253l20 133h984l56 -63l-556 -1634h-207l-48 64z" />
    <glyph glyph-name="eight" unicode="8" 
d="M153 366q0 72 32.5 138t83.5 118q101 101 232 142q-139 81 -209 166q-89 107 -89 240q0 179 151 282q136 92 343 92q192 0 323 -100q132 -103 132 -262q0 -126 -94 -230q-86 -96 -200 -130q166 -87 230.5 -152t94 -125t29.5 -147.5t-38 -166.5t-108 -134
q-145 -113 -398 -113q-174 0 -330 88q-185 103 -185 294zM757 875q80 43 131 124q49 76 49 150t-17 127t-49 90q-65 74 -179 74q-196 0 -265 -120q-25 -44 -25 -105.5t29.5 -108t78.5 -86t113 -74.5zM400 490q-15 -48 -15 -103.5t24 -108.5t65 -92q87 -81 213 -81
q222 0 295 127q27 46 27 110.5t-29.5 111.5t-78.5 86.5t-112 73.5l-130 68l-25 12q-13 6 -25 13q-161 -59 -209 -217z" />
    <glyph glyph-name="nine" unicode="9" 
d="M968 463q-178 -130 -377 -130q-216 0 -349 147q-126 141 -126 359q0 225 166 381q167 159 414 159q267 0 412 -197q125 -168 128 -413q3 -521 -374 -803q-209 -157 -462 -201q-69 -12 -121 -13l-24 85l6 3q246 28 441 199q197 173 266 424zM538 513q64 -31 121 -31t96 7
t81 21q93 33 158 88q5 60 5 149t-22.5 193.5t-62.5 173.5q-81 139 -224 139q-269 0 -328 -222q-19 -71 -19 -155.5t22 -155t65.5 -123.5t107.5 -84z" />
    <glyph glyph-name="colon" unicode=":" horiz-adv-x="512" 
d="M95 129q0 65 47 111q48 46 113 46t113 -46q47 -46 47 -111q0 -64 -47 -111t-113 -47t-113 47t-47 111zM93 1034q0 65 47 111q48 46 113 46t113 -46q47 -46 47 -111q0 -64 -47 -111t-113 -47t-113 47t-47 111z" />
    <glyph glyph-name="semicolon" unicode=";" horiz-adv-x="512" 
d="M93 1034q0 65 47 111q48 46 113 46t113 -46q47 -46 47 -111q0 -64 -47 -111t-113 -47t-113 47t-47 111zM119 27.5q-30 41.5 -30 84t13 72t36 52.5q50 50 117 50q71 0 116 -54.5t45 -120.5t-17 -117.5t-43.5 -99.5t-58.5 -90.5t-63 -73.5q-66 -69 -89 -69q-54 0 -96 49
l44 48q117 132 119 220q-63 8 -93 49.5z" />
    <glyph glyph-name="less" unicode="&#x3c;" horiz-adv-x="1364" 
d="M173 644l958 427v-177l-655 -297l655 -292v-178l-958 434v83z" />
    <glyph glyph-name="equal" unicode="=" horiz-adv-x="1364" 
d="M208 841h968l-20 -162h-967zM204 501h968l-20 -162h-967z" />
    <glyph glyph-name="greater" unicode="&#x3e;" horiz-adv-x="1364" 
d="M1163 644l-958 427v-177l655 -297l-655 -292v-178l958 434v83z" />
    <glyph glyph-name="question" unicode="?" horiz-adv-x="1537" 
d="M905 468q-33 -10 -111 -10t-117 13t-68 38q-62 53 -62 142q0 138 149 260l170 137q145 121 145 260q0 140 -81 225q-78 81 -189 81q-223 0 -285 -199q-18 -60 -18 -136q-74 0 -161 14q-15 67 -15 137q0 92 5 157q43 11 79 25l142 59q129 53 284 53q182 0 317 -72
q111 -58 157 -173q25 -60 25 -136t-28 -133.5t-73 -106.5t-100 -91l-193 -139q-133 -99 -133 -187q0 -85 72 -94q20 -3 40 -3t48 7zM599 129q0 65 47 111q48 46 113 46t113 -46q47 -46 47 -111q0 -64 -47 -111t-113 -47t-113 47t-47 111z" />
    <glyph glyph-name="at" unicode="@" horiz-adv-x="2048" 
d="M1630 122q61 -30 61 -68q0 -14 -17 -28q-257 -196 -643 -196q-394 0 -627 170q-272 199 -264 624q4 259 130 474q194 332 584 432q131 34 301.5 34t316.5 -45t244 -123q197 -157 197 -407q0 -300 -145 -520q-100 -153 -260 -214q-81 -31 -179 -30q-93 0 -156 72
q-21 24 -32 57q-152 -110 -311 -110q-100 0 -182 84q-147 148 -57 428q76 238 275 357q123 74 249 74q116 0 204 -66q20 2 49 5l56 8q63 8 68.5 15t4.5 -11.5t-9 -57t-22 -92.5l-59 -230q-16 -59 -24 -92t-12.5 -49.5t-11.5 -47.5q-19 -84 -19 -130t15 -59t59 -13t91.5 26.5
t83.5 71.5t61 104.5t41 125.5q31 128 31 251.5t-37.5 211.5t-112.5 150q-156 129 -448 129q-352 0 -572 -234q-212 -225 -220 -578q-6 -312 198 -493q191 -170 501 -170q312 0 509 100q51 25 90 60zM1271 1041q-55 23 -136.5 23t-146.5 -40t-112 -106q-94 -133 -103 -318
q-4 -85 44 -142q44 -52 113 -52q121 0 205 68q4 36 9 63l8 44z" />
    <glyph glyph-name="A" unicode="A" horiz-adv-x="1533" 
d="M9 109q76 0 102 20q40 31 70 103h-1l500 1298q56 0 108 17t65 26l462 -1238q54 -157 119 -209q20 -16 37 -16q50 0 80 19l-22 -129h-595l15 110q169 -3 183 64q5 20 0 44l-128 339h-534l-128 -366q-19 -46 22 -73q11 -8 41.5 -8t52.5 2q54 3 80 13l-16 -125h-526z
M958 680l-230 611l-215 -611h445z" />
    <glyph glyph-name="B" unicode="B" horiz-adv-x="1536" 
d="M785 -16l-376 15h-306l8 111q91 0 124 24q59 45 59 148v940q0 159 -62 184q-18 8 -59 8t-68 -11l9 127h295q68 2 132 5q172 10 278.5 10t204 -25.5t162.5 -72.5q131 -95 131 -263q0 -133 -79 -232q-65 -81 -175 -125q187 -17 287 -125q90 -96 90 -239q0 -209 -168 -340
q-179 -139 -487 -139zM1078 1164q0 265 -348 265q-115 0 -157 -9l-62 -12v-553h291q216 0 261 174q15 58 15 135zM511 739l2 -503q0 -84 61 -111q58 -25 206 -25t222.5 25.5t117.5 71.5q77 81 77 249t-89 230q-92 64 -345 64z" />
    <glyph glyph-name="C" unicode="C" horiz-adv-x="1709" 
d="M1540 409q2 -20 2 -50.5t-3.5 -70t-8.5 -76.5q-13 -84 -26 -120q-214 -107 -556 -107q-320 0 -546 169q-165 123 -231 345q-34 114 -34 277.5t63 309t176 247.5q235 212 610 212q70 0 183 -13t148 -16l68 -7q77 -7 101 -7h32q7 0 22 2q2 -24 2 -113t-32 -299h-128
q-19 151 -48 209q-83 133 -363 133t-437 -184q-150 -175 -150 -463q0 -333 188 -521q172 -172 420 -172q179 0 272 68q94 69 151 247h125z" />
    <glyph glyph-name="D" unicode="D" horiz-adv-x="1539" 
d="M707 -15l-334 14l-281 1l7 110q90 0 120 26q53 46 53 150v943q0 105 -21 136.5t-41 40.5t-50 9t-69 -12l10 127h252l365 15q776 0 776 -736q0 -373 -215 -598q-216 -226 -572 -226zM824 1416q-79 13 -162.5 13t-172.5 -20v-1201q0 -50 7.5 -62t22.5 -17.5t43 -8.5
q48 -5 170.5 -5t216.5 36.5t162 114.5q144 167 144 497q0 582 -431 653z" />
    <glyph glyph-name="E" unicode="E" horiz-adv-x="1368" 
d="M955 600l-2 -32h-123q-7 113 -26 142q-34 51 -123 51h-201v-482q0 -97 37 -129q36 -31 155 -35h191q200 0 276 173q24 54 32 122h124q0 -114 -23 -240l-30 -170h-1155l17 110q100 0 131 44q28 38 28 153v914q0 193 -87 193q-36 0 -76 -9l12 125h776q241 0 361 16
q0 -160 -31 -320q-8 -38 -14 -58h-102q-10 162 -62 205q-29 24 -75.5 30t-116.5 6h-368v-535h207q100 0 131 43q20 27 32 126l122 1l1 -53q0 -127 -18 -391z" />
    <glyph glyph-name="F" unicode="F" horiz-adv-x="1368" 
d="M939 1530q243 0 359 16q0 -237 -45 -387h-106q-11 161 -73 209q-52 41 -203 41h-392v-557h223q115 0 145.5 25t42 59t18.5 90h128l-23 -477h-123q-2 81 -25 122t-49 51q-22 9 -136 10.5t-146.5 2t-54.5 0.5v-464q0 -92 22.5 -116.5t50.5 -32t57 -7.5t47.5 0.5t39.5 0.5
q51 2 83 7l-13 -123h-679l17 110q100 0 130 44q28 39 28 153v914q0 193 -86 193q-36 0 -76 -9l12 125h827z" />
    <glyph glyph-name="G" unicode="G" horiz-adv-x="1709" 
d="M1501 97q-198 -113 -563 -113q-411 0 -623 208q-203 199 -203 555q0 325 202 549q142 156 374 218q119 31 237 31q138 0 263 -15q196 -25 257 -25l36 1q0 -191 -28 -403h-139q-12 194 -88 265q-75 71 -251 71t-292.5 -53.5t-189.5 -143.5q-139 -171 -139 -460
q0 -476 338 -624q122 -53 271 -53q240 0 308 88v308q0 144 -111 155q-30 3 -74 3t-83 -7l10 135h608l-14 -126q-47 -1 -74 -9.5t-41 -37.5q-21 -45 -21 -230q0 -214 30 -287z" />
    <glyph glyph-name="H" unicode="H" horiz-adv-x="1706" 
d="M1485 117q16 -7 40 -7t80 14l-12 -124h-551l18 110q97 0 132 52q29 45 29 165v399h-738v-457q0 -107 9.5 -128.5t22 -26t39.5 -4.5q50 0 114 16l-15 -126h-563l17 110q100 0 131 44q28 38 28 153v914q0 193 -85 193q-36 0 -78 -9l12 125h533l-15 -116q-46 0 -75 -5
t-46 -25q-29 -36 -29 -176v-356h738v362q0 126 -13.5 156t-29.5 37t-46 7q-47 0 -100 -12l19 128h556l-14 -116q-88 0 -119 -37q-37 -43 -37 -164v-955q0 -120 48 -141z" />
    <glyph glyph-name="I" unicode="I" horiz-adv-x="853" 
d="M586.5 118.5q22.5 -8.5 50 -8.5t102.5 15l-12 -125h-613l11 110q98 0 142 46q51 55 51 185l-1 873q0 170 -51 193q-16 7 -37 7q-59 0 -107 -9l16 125h585l-16 -116q-113 0 -144 -38q-29 -34 -29 -155v-950q0 -96 15 -120t37.5 -32.5z" />
    <glyph glyph-name="J" unicode="J" horiz-adv-x="855" 
d="M74 -310q138 147 206 376q49 167 49 330v781q0 146 -14.5 183t-31 45.5t-46.5 8.5q-80 0 -116 -8q1 -1 1 -3l-12 1l18 126h621l-15 -116q-109 0 -139 -24.5t-40 -59t-10 -90.5v-908q0 -144 -20 -218.5t-47 -129.5t-71 -114q-86 -113 -258 -256l-75 74v2z" />
    <glyph glyph-name="K" unicode="K" horiz-adv-x="1536" 
d="M1435 1412q-14 4 -19.5 4t-29.5 -1t-46.5 -8.5t-53.5 -28.5q-71 -51 -163 -157l-360 -415q147 -104 345 -346q53 -66 90.5 -119.5t70.5 -96t63 -72.5q60 -60 102.5 -60t75.5 9l-4 -121h-235q-110 0 -201 115q-31 39 -58 85q-81 132 -119 188l-75 108q-128 176 -212 241
h-93v-437q0 -100 13 -132q25 -58 88 -58q41 0 102 14l-13 -124h-572l12 110q97 0 125 40t28 181v891q0 108 -12.5 139.5t-28.5 42t-32.5 10.5t-28.5 -0.5t-26 -1.5l-26 -2q-13 -1 -23 -2l18 122h541l-15 -116q-86 0 -111 -26q-39 -43 -39 -156v-380h69q34 0 55 17l283 325
q41 48 50 63q19 31 33 49q39 46 39 65q0 50 -54 50q-49 0 -91 -9l17 118h539z" />
    <glyph glyph-name="L" unicode="L" horiz-adv-x="1367" 
d="M1273 447q5 -55 5 -114q0 -83 -18 -181q-24 -126 -26 -152h-1172l12 115q96 -2 134 39q45 47 45 177l-1 917q0 108 -14 132t-29.5 29t-43 5t-47.5 -4q-24 -6 -32 -6l16 126h600l-14 -117q-129 0 -161 -20t-43.5 -52t-11.5 -87l1 -31v-943q0 -148 98 -165q29 -5 62 -5h165
q275 0 328 211q16 61 23 126h124z" />
    <glyph glyph-name="M" unicode="M" horiz-adv-x="2219" 
d="M457 122.5q20 -8.5 52.5 -8.5t119.5 15l-11 -129h-539l6 114q85 -2 113 30q47 53 129 530l92 566q7 42 7 78q0 96 -80 96q-55 0 -103 -12l16 128h452q15 -88 60 -238q99 -320 149 -465q127 -367 181 -511q301 888 340 1023.5t51 190.5h449l-15 -116q-98 0 -123.5 -13
t-33.5 -30t-8 -37q0 -26 5 -69l19 -133q67 -479 155 -853q25 -98 41 -122q25 -39 72 -39q65 0 105 11l-13 -129h-599l13 99q82 -2 113 22q58 44 58 133q0 37 -14 116l-157 878l-283 -838q-66 -199 -122 -397q-46 0 -148 -30l-438 1263q-18 -126 -40 -254q-48 -263 -65 -352
t-28 -154q-25 -149 -25 -218t3 -88.5t13.5 -34t30.5 -23z" />
    <glyph glyph-name="N" unicode="N" horiz-adv-x="1706" 
d="M1512 17q-81 -7 -132 -36q-66 99 -156 222l-193 260l-219 283l-398 504v-949q0 -103 19.5 -137t39.5 -44t43 -10t43 1.5t38 4.5l33 4q16 2 25 4l-12 -124h-558l13 110q93 0 120 21q51 40 51 153v937q0 111 -13 139.5t-30.5 37t-43.5 8.5q-32 0 -101 -11l15 135h418
q32 -96 93 -180l131 -178q526 -682 614 -789v861q0 117 -12 139.5t-28.5 27t-50 4.5t-104.5 -11l11 126h514l-14 -115q-57 0 -91 -1.5t-51 -15.5q-29 -21 -29 -129v-1016q0 -116 15 -236z" />
    <glyph glyph-name="O" unicode="O" horiz-adv-x="1709" 
d="M170.5 416q-50.5 140 -47.5 312.5t55.5 319.5t151.5 258q214 240 576 240q305 0 493 -198q193 -204 193 -551q-13 -342 -211 -569q-134 -153 -342 -213q-105 -30 -242.5 -30t-265 49.5t-219 145.5t-142 236zM641.5 163q94.5 -51 207 -51t201 38t154.5 116
q143 168 147 467q6 310 -120 494q-132 191 -377 191q-212 0 -343 -152q-142 -164 -148 -465q-6 -312 121 -496q63 -91 157.5 -142z" />
    <glyph glyph-name="P" unicode="P" horiz-adv-x="1364" 
d="M588 117q29 -7 75.5 -7t119.5 20l-12 -130h-646l11 109q89 0 124 55q33 51 33 167l-1 909q0 120 -9.5 143t-28 31t-54.5 8q-55 0 -106 -11l18 119h202q190 0 272 6q141 9 253.5 8t209.5 -35t157 -94q115 -114 115 -320q0 -222 -159 -362q-153 -136 -385 -136
q-91 0 -184 25l-19 117q88 -20 162.5 -20t142.5 25t115 72q98 96 98 266q0 350 -393 350q-92 0 -187 -19v-1152q0 -90 23.5 -113.5t52.5 -30.5z" />
    <glyph glyph-name="Q" unicode="Q" horiz-adv-x="1709" 
d="M899 -11q-28 -2 -56 -2q-313 0 -499 195q-195 205 -189 556q6 345 207 570q214 240 576 240q305 0 494 -198q192 -204 192 -551q-10 -276 -146 -481q-144 -219 -388 -295q90 -43 153 -104q123 -117 217 -123q55 -3 137 14l34 -130q-81 -81 -215 -81q-155 0 -285 152
q-35 41 -63 77.5t-50 62t-42 44.5q-38 37 -77 54zM395 806q-3 -155 27.5 -281.5t93.5 -217.5q134 -193 377 -193q212 0 343 154q143 168 147 467q6 310 -121 494q-131 191 -376 191q-212 0 -343 -152q-142 -164 -148 -462z" />
    <glyph glyph-name="R" unicode="R" horiz-adv-x="1535" 
d="M571 120.5q22 -10.5 64.5 -10.5t106.5 16l-11 -126h-590l12 110q103 2 131 54q24 42 24 186l-1 901q0 98 -9 121q-18 42 -82 42q-51 0 -104 -12l16 128h288l406 15q368 0 466 -229q30 -72 30 -162.5t-33 -165.5t-85 -132q-104 -114 -242 -147q100 -51 216 -247l115 -196
q89 -147 139 -147q39 -2 85 13l-5 -132h-152q-151 0 -244 103q-46 58 -81 150l-55 140q-37 92 -88 159.5t-86 90.5q-64 41 -200 41h-84v-404q0 -95 15.5 -122t37.5 -37.5zM892 1408q-64 21 -114 21h-124q-75 0 -136 -16v-609h241q136 2 227 84q97 89 97 234q0 226 -191 286z
" />
    <glyph glyph-name="S" unicode="S" horiz-adv-x="1364" 
d="M1172 1526q2 -40 2 -140.5t-32 -272.5h-110q-6 253 -200 305q-61 17 -144 17t-140.5 -22t-89.5 -57q-57 -61 -52 -160q8 -152 220 -262q63 -33 126.5 -61t119 -55.5t107.5 -60t97.5 -69.5t80.5 -81q74 -94 82 -203q0 -203 -161 -316q-149 -104 -393 -104q-78 0 -218 26
t-194.5 26t-94.5 -6l-8 2q-1 22 -1 44v42q0 211 23 342h113q12 -281 203 -344q68 -23 153.5 -23t147.5 19.5t106 53.5q92 71 92 182q-10 158 -241 268q-67 32 -108 50l-51 22q-11 5 -53.5 23t-113 62t-125.5 101q-120 125 -124 285q-4 173 143 281q144 105 378 105
q36 0 110 -9l126 -16q54 -7 108.5 -7t115.5 13z" />
    <glyph glyph-name="T" unicode="T" horiz-adv-x="1535" 
d="M1446 1476l-12 -348h-141q0 88 -4 142t-25.5 84t-67.5 40.5t-129 12.5h-189v-1117q0 -114 17.5 -139.5t41.5 -32t47.5 -6.5t45.5 1.5t47 4.5q67 6 80 10l-12 -128l-768 1l8 111q98 0 152.5 6t81 26.5t32.5 60t6 107.5v1095h-157q-166 -4 -224 -61q-57 -56 -71 -218h-140
q9 80 23 166.5t21 135.5l14 100h1321q2 -11 2 -24v-30z" />
    <glyph glyph-name="U" unicode="U" horiz-adv-x="1537" 
d="M1154.5 1403.5q-19.5 10.5 -48.5 10.5t-84 -12l11 128h481l-15 -116q-95 0 -119 -44q-20 -38 -20 -177v-583q0 -308 -139.5 -466.5t-431.5 -158.5q-307 0 -457 174q-137 160 -137 458v397l-1 188v58q0 107 -14.5 128t-29.5 23.5t-30 2.5q-31 0 -84 -12l14 128h563
l-15 -116q-123 0 -154 -33q-30 -32 -30 -160v-575q0 -534 374 -534q129 0 194 29t103.5 66t66.5 95q57 123 57 334v560q0 123 -17.5 160t-37 47.5z" />
    <glyph glyph-name="V" unicode="V" horiz-adv-x="1364" 
d="M794 13q-86 0 -140 -29l-9 1l-345 817q-116 285 -142.5 356t-44.5 114.5t-35 75.5q-37 66 -78 66q-23 0 -57 -10l14 126h584l-18 -116q-192 0 -192 -69q0 -14 4 -25q379 -1007 406 -1075l273 773l48 148q44 143 43.5 170t-8 41.5t-19.5 22.5q-19 14 -65.5 14t-89.5 -12
l10 128h510l-13 -116q-79 0 -102.5 -17.5t-35.5 -41t-24 -58.5z" />
    <glyph glyph-name="W" unicode="W" horiz-adv-x="2214" 
d="M941 1414l-69 -10l12 126h612l-19 -116q-123 0 -155 -9t-41.5 -21.5t-9.5 -32.5t3.5 -33.5t15.5 -52.5q289 -937 308 -1003q286 783 313 861q60 174 59.5 207.5t-9.5 48t-23 22.5q-24 13 -71 13t-93 -12l11 128h526l-14 -116q-80 0 -104 -18q-39 -27 -57 -81l-477 -1302
q-108 -7 -155 -29l-10 1l-347 1029q-299 -893 -313 -938l-16 -50q-3 -8 -4 -13q-108 -7 -155 -29l-10 1q-389 1050 -445 1191l-36 102q-34 92 -58.5 114t-54.5 22t-64 -14l13 130h573l-15 -116q-104 0 -131 -8q-49 -14 -49 -57q0 -29 16 -77l347 -996l329 964
q-56 174 -133 174z" />
    <glyph glyph-name="X" unicode="X" horiz-adv-x="1535" 
d="M872 120q42 -5 88 -5q96 0 94 67q-2 42 -62 123l-252 337q-242 -324 -280 -388.5t-38 -82.5q-2 -54 74 -54q54 0 91 7l-19 -124h-539l20 117q67 0 131 35q20 10 33 23q115 134 221 271l215 281q1 2 14 18q-390 524 -421 563t-58 62q-55 44 -129 44l11 116h621l-19 -116
q-112 0 -140 -9.5t-35.5 -22t-7 -25.5t2.5 -20t9.5 -20.5t22.5 -35.5l130 -184l150 -201q324 428 324 476q0 26 -19.5 34t-46.5 8q-47 0 -105 -12l21 128h520l-20 -116q-116 0 -154 -49l-120 -152l-324 -419l423 -559l35 -43q64 -77 127 -77q34 0 66 8l-13 -123h-649z" />
    <glyph glyph-name="Y" unicode="Y" horiz-adv-x="1364" 
d="M863.5 119.5q20.5 -10.5 76.5 -10.5t120 16l-9 -125h-698l8 109h43q128 0 157 24.5t36.5 58t7.5 88.5v254l-479 795q-32 47 -61 61q-51 24 -121 24l15 116h608l-26 -116q-103 0 -126.5 -8.5t-32 -22t-8.5 -39t14 -62t37.5 -80.5t54.5 -94l132 -210q34 -55 63 -109
l59 -125q152 283 188 357l62 129q57 123 61 150.5t3.5 45.5t-8.5 33q-20 35 -80 35q-40 0 -100 -12l15 128h558l-19 -116q-87 0 -119 -24q-49 -38 -99 -142l-377 -714v-186q0 -154 12 -186t32.5 -42.5z" />
    <glyph glyph-name="Z" unicode="Z" 
d="M984 1414h-453q-121 0 -180 -82q-28 -38 -46 -91t-37 -115h-141q42 151 42 411l135 -4q86 -3 223 -3h710l36 -70l-882 -1345h426q195 0 287 165q32 58 54 141l126 -1q0 -93 -17 -195l-37 -225h-1084l-45 68z" />
    <glyph glyph-name="bracketleft" unicode="[" horiz-adv-x="1085" 
d="M278 1868h454l-16 -116q-171 0 -203 -19.5t-38.5 -51t-6.5 -85.5v-1707q0 -71 10 -86q13 -23 43.5 -23t63.5 1.5t67 4.5q78 5 99 10l-14 -135h-459v2207z" />
    <glyph glyph-name="backslash" unicode="\" horiz-adv-x="1023" 
d="M222 1668h-158l737 -1668h156z" />
    <glyph glyph-name="bracketright" unicode="]" horiz-adv-x="1085" 
d="M784 -338h-454l16 116q171 0 203 19.5t38.5 51t6.5 85.5v1707q0 71 -10 86q-13 23 -43.5 23t-63.5 -1.5t-67 -4.5q-78 -5 -99 -10l14 135h459v-2207z" />
    <glyph glyph-name="asciicircum" unicode="^" horiz-adv-x="1364" 
d="M577 1530h216l373 -968h-197l-293 763l-305 -763h-177z" />
    <glyph glyph-name="underscore" unicode="_" horiz-adv-x="1533" 
d="M1560 -165l-19 -146h-1578l19 146h1578z" />
    <glyph glyph-name="grave" unicode="`" horiz-adv-x="1287" 
d="M275 1590l122 170l431 -344l-73 -113z" />
    <glyph glyph-name="a" unicode="a" horiz-adv-x="1195" 
d="M1021 871l-16 -531q0 -107 65 -154q45 -33 115 -33q-4 -51 -41 -92q-65 -72 -106 -83q-62 0 -116.5 42t-84.5 123q-114 -108 -279 -153q-46 -13 -107.5 -13t-131 23.5t-116.5 66.5q-95 87 -95 237q0 182 204 283q190 94 500 94h11q0 63 -2 123l-1 40q-5 121 -87 184
q-65 50 -160 50t-153 -50.5t-58 -145.5q0 -35 8 -75h-179l-7 2q-3 16 -6 34q-9 43 -14.5 89.5t-5.5 61.5q0 22 8 32q259 183 507 183q242 0 319 -176q29 -65 29 -162zM812 301q7 126 10 270q-11 4 -66.5 4t-140 -17.5t-147.5 -50.5q-134 -71 -134 -190q0 -83 54 -139
q55 -56 142 -56q108 0 222 97q34 29 60 61v21z" />
    <glyph glyph-name="b" unicode="b" horiz-adv-x="1362" 
d="M896.5 38q-107.5 -53 -268 -53t-294.5 56l-128 -64l-10 2q12 216 12 342v226l-6 818q0 89 -8 108.5t-16.5 29.5t-24 16.5t-34.5 8.5q-27 4 -79 4h-25l12 114l402 59q-19 -85 -19 -510l-8 -132q125 100 282 135q48 11 110.5 11t147 -28t152.5 -94q153 -149 153 -445
q0 -269 -165 -460q-78 -91 -185.5 -144zM410 213q44 -65 188 -93q42 -8 105.5 -8t133 35t117.5 100q96 132 96 370q0 192 -101 308q-100 115 -263 115q-69 0 -139 -28q-116 -46 -139 -72l2 1v-728z" />
    <glyph glyph-name="c" unicode="c" horiz-adv-x="1191" 
d="M718 162q162 0 329 91l38 -81q-48 -54 -129 -98q-169 -91 -293.5 -91t-224 38.5t-172.5 110.5q-153 152 -153 407q0 310 185 497q171 173 429 173q141 0 282 -43l27 -8q13 -4 23 -6q8 -16 8 -72t-2.5 -87.5t-6 -60.5t-7.5 -52l-6 -36q-6 -10 -62 -10q-68 0 -89 9
q0 119 -29.5 162.5t-74 63.5t-117 20t-134.5 -30.5t-109 -90.5q-102 -132 -102 -358q0 -323 218 -416q73 -32 172 -32z" />
    <glyph glyph-name="d" unicode="d" horiz-adv-x="1362" 
d="M544 1184q76 25 176.5 25t204.5 -28v20q0 236 -8 260.5t-19.5 35.5t-30 19t-40.5 12q-28 4 -97 4h-19l15 114l416 58q0 -9 -1.5 -15t-4.5 -27.5t-6 -73.5q-8 -139 -8 -374v-912q0 -78 17.5 -110t49.5 -32q42 0 96 19l29 9q-2 -12 -3.5 -33.5t-3.5 -44.5t-3 -50l-314 -78
q-11 5 -30.5 61t-26.5 82q-127 -90 -270 -127q-50 -13 -121 -13t-155 36t-145 107q-133 151 -133 417q0 174 80 330q120 235 355 309zM616 168q56 2 108 13t94 25q89 29 109 49l-2 -1v727q-44 66 -169 93q-36 8 -94 8t-125.5 -26.5t-115.5 -86.5q-100 -125 -100 -392
q0 -180 91 -299q87 -113 204 -110z" />
    <glyph glyph-name="e" unicode="e" horiz-adv-x="1195" 
d="M674 156q198 13 349 95l44 -84q-151 -125 -344 -171q-58 -13 -106 -13q-377 0 -475 333q-32 107 -32 249.5t46.5 262.5t123 204.5t175.5 130.5t205 46q425 0 425 -486v-10q0 -127 -30 -127h-736q0 -209 92.5 -318t262.5 -112zM857 714q1 21 1 32v33q0 235 -130 289
q-47 20 -100.5 20t-90.5 -16t-69.5 -44t-59.5 -65.5t-47 -82.5q-42 -93 -42 -190z" />
    <glyph glyph-name="f" unicode="f" horiz-adv-x="852" 
d="M457 1037l1 -791q0 -91 18 -111t40.5 -24.5t43.5 -4.5t43 0.5t51 1.5q67 2 112 8l-13 -116h-684l13 106q63 0 98 7t52.5 31t21.5 69.5t4 121.5l-2 702h-176l11 108q45 3 100 20t67 23q-4 28 -4 69t13.5 97.5t40 109.5t65 100.5t89.5 83.5q110 76 251 76q181 0 245 -108
q29 -48 29 -99q0 -62 -19 -144l-3 -18h-159v86q0 64 -26 88q-46 44 -142 44q-133 0 -176 -129q-17 -48 -17 -117t11 -137h331l-12 -153h-318z" />
    <glyph glyph-name="g" unicode="g" horiz-adv-x="1195" 
d="M468 386q-63 -50 -63 -85.5t13.5 -53t41.5 -28.5q36 -14 178 -30l96 -12q200 -25 286 -79q109 -69 109 -204q0 -184 -147 -299q-146 -113 -382 -113q-353 0 -464 162q-35 52 -35 109t16.5 101.5t46.5 82.5q63 79 166 121q-118 53 -118 139q0 89 89 179q24 25 47 39
q-184 68 -224 259q-12 54 -12 121t39.5 144.5t110.5 137.5q158 132 395 132q110 0 204 -44l314 45v-170l-164 -3q61 -90 61 -206t-45.5 -196t-118.5 -135q-150 -116 -342 -116h-58.5t-39.5 2zM608 504q61 0 108.5 17.5t82.5 52.5q74 72 74 201q0 135 -73 217q-77 87 -210 87
q-121 0 -186 -50q-89 -67 -89 -232q0 -117 84 -203q88 -90 209 -90zM439 27q-127 -74 -127 -218q0 -93 90 -147q86 -51 200.5 -51t178.5 15t105 42q79 51 79 144q0 98 -103 138q-72 29 -321 63z" />
    <glyph glyph-name="h" unicode="h" 
d="M415 1029q213 180 426 180q222 0 295 -199q24 -67 24 -152t-3 -165t-7 -161q-17 -343 -9 -372.5t17 -39.5q23 -26 139 -3l-12 -117h-513l14 106q117 0 143 84q25 89 27.5 224t2.5 203.5t-1.5 110t-7 83t-18 81t-34.5 69.5q-48 67 -136 67q-143 0 -284 -86l-63 -37v-697
q0 -61 15 -78q22 -24 49 -24q74 0 116 11l-16 -117h-521l16 106q93 0 120 56q21 45 21 195v1008q0 103 -27 136q-31 31 -139 31h-25l12 114l401 59q-22 -96 -22 -510v-166z" />
    <glyph glyph-name="i" unicode="i" horiz-adv-x="683" 
d="M433 1406q-28 -11 -61 -11t-62 11.5t-50 31.5q-46 42 -46 91.5t12 78.5t34 50q46 45 113 45q65 0 109 -45q43 -45 43 -113q0 -101 -92 -139zM509 1210q-45 -130 -45 -512l7 -466q0 -61 19 -93.5t76 -32.5q46 0 82 12l-14 -118h-537l18 106q98 0 133 54q29 46 29 153v523
q0 125 -44 162q-35 30 -154 30l16 126z" />
    <glyph glyph-name="j" unicode="j" horiz-adv-x="683" 
d="M446 1406q-28 -11 -61 -11t-62 11.5t-51 31.5q-45 42 -45 91.5t12 78.5t33 50q47 45 114 45q65 0 108 -45q44 -45 44 -113q0 -101 -92 -139zM481 698l11 -595q2 -249 -132 -421q-98 -125 -259 -202l-71 61q218 179 250 499q9 97 9 158v287l-1 357q0 104 -49 146
q-46 40 -159 40l16 126l423 56q-38 -97 -38 -512z" />
    <glyph glyph-name="k" unicode="k" horiz-adv-x="1193" 
d="M970 236q123 -130 188 -130q37 0 67 14l-10 -120h-207q-133 0 -332 241q-100 125 -141 182l-69 95q-28 37 -51 63v-345q0 -85 11.5 -103.5t25 -22.5t30.5 -4q49 0 79 14l-15 -120h-489l16 106q89 0 117 46q27 41 27 161v1052q0 103 -24 131t-67 32t-100 4l12 114l401 59
q-24 -105 -24 -510v-527q225 187 282 244q95 97 95 122q0 27 -18 33q-31 12 -112 12l12 111h523l-10 -111h-30q-78 0 -186 -101q-141 -115 -210 -176q-136 -121 -170 -154q1 -2 17 -21q205 -231 261 -289z" />
    <glyph glyph-name="l" unicode="l" horiz-adv-x="683" 
d="M475 1705q-21 -109 -21 -438v-72l2 -957q0 -82 12 -102q19 -30 67 -30q67 0 117 11l-16 -117h-579l17 106q104 0 133.5 23t38 47.5t8.5 60.5v1128q0 85 -10.5 106t-19 31.5t-26 17t-40.5 8.5q-32 4 -106 4l12 114z" />
    <glyph glyph-name="m" unicode="m" horiz-adv-x="2049" 
d="M749 1030q-110 0 -276 -115v-674q0 -89 16 -108.5t34.5 -23t40.5 -3.5q36 0 91 11l-15 -117h-525l16 106q81 0 113 54q33 55 33 186v495q0 103 -31 155q-31 40 -135 40l15 118l366 54l-8 -55q-8 -67 -8 -115l55 40q94 69 182 100t150 31q216 0 291 -177q126 109 261 156
q58 21 122.5 21t124 -22t102.5 -66q92 -94 92 -268q0 -110 -6 -218q-19 -313 -12 -391t14 -100q14 -38 49 -38q49 0 104 11l-14 -117h-495l17 106q69 0 97 33q28 35 35 196t7 313t-8.5 215t-32.5 100q-43 66 -181 66q-102 0 -249 -100q5 -45 5 -93q0 -78 -8 -194
q-27 -423 8 -498q18 -38 68 -38t100 11l-16 -117h-529l17 106q90 0 118 27q30 28 34 206q3 100 3 277.5t-8.5 242.5t-32.5 103q-44 68 -191 68z" />
    <glyph glyph-name="n" unicode="n" 
d="M105 106q83 0 111 42q32 48 32 198v483q0 120 -29 159q-29 40 -134 40l16 126l358 54q-11 -81 -11 -172q128 105 268 152q60 21 124 21t124.5 -19t105.5 -62q99 -93 99 -277q0 -112 -7 -219q-19 -321 -11.5 -391t17.5 -93q19 -42 68 -42q47 0 85 12l-15 -118h-512l18 106
q83 0 114 36q13 15 19.5 41.5t11 67.5t7.5 99q6 118 6 267.5t-5.5 218t-26.5 110.5q-40 82 -176 82q-126 0 -266 -86l-48 -29v-672q0 -90 14 -109t32 -22.5t40 -3.5q51 0 95 11l-17 -117h-523z" />
    <glyph glyph-name="o" unicode="o" 
d="M115 604q0 135 50 248.5t134 193.5q173 163 425 163q244 0 387 -162q137 -155 137 -404q0 -283 -178 -473q-175 -185 -431 -185q-252 0 -393 179q-131 165 -131 440zM684 112q76 0 134.5 27t101.5 83q94 119 94 344q0 240 -92 381q-93 141 -253 141q-141 0 -229 -110
q-97 -121 -97 -347q0 -235 91 -375q93 -144 250 -144z" />
    <glyph glyph-name="p" unicode="p" 
d="M447 -57l2 -197q0 -88 10 -106t25.5 -22.5t51.5 -4.5t70 3q88 6 98 13l-18 -137h-622l16 111q93 0 119 28q48 50 48 191v1026q0 121 -43 156q-27 22 -116 22l16 128l350 56q-2 -21 -4 -44t-3.5 -50.5t-3.5 -57.5q125 103 283 140q50 11 97 11t101 -12t104.5 -39.5
t94.5 -71t77 -106.5q71 -136 71 -338q0 -272 -157 -460q-164 -197 -420 -197q-146 0 -246 28q-1 -17 -1 -35v-35zM449 213q41 -65 183 -93q40 -8 104.5 -8t131 35t110.5 100q85 128 85 370q0 301 -182 391q-66 32 -134 32t-112 -12t-83 -28q-82 -34 -105 -60l2 1v-728z" />
    <glyph glyph-name="q" unicode="q" 
d="M949 134q-162 -149 -362 -149q-192 0 -316 130q-145 152 -145 437q0 263 173 458q176 199 424 199q136 0 256 -39l175 41q-13 -211 -13 -493v-967q0 -98 11.5 -121t27.5 -29t38 -6q53 0 94 9l-13 -113h-597l11 112q123 0 161.5 24t53.5 58t15 90v182zM706 1082
q-372 0 -372 -505q0 -206 104 -313q95 -98 269 -98q99 0 204 63q25 15 34 25l-2 -1v728q-44 65 -168 93q-36 8 -69 8z" />
    <glyph glyph-name="r" unicode="r" horiz-adv-x="1024" 
d="M501.5 110.5q24.5 -4.5 102.5 -4.5t122 12l-7 -118h-644l14 106q88 0 113 31q45 56 45 198v482q0 135 -28 167q-31 36 -136 42l14 128l359 54q-10 -73 -10 -167q105 100 246 151q50 17 95 17q192 0 192 -171q0 -101 -29 -217q-2 -8 -3 -10.5t-1 -3.5h-167l6 47l4 40
q2 19 2 40t-3.5 42t-13.5 35q-18 27 -61 27t-81.5 -13t-74.5 -31q-73 -38 -113 -78l2 1l1 -671q0 -95 15 -113t39.5 -22.5z" />
    <glyph glyph-name="s" unicode="s" horiz-adv-x="1031" 
d="M880 1201q3 -18 3 -65t-11 -116l-21 -141h-124q-2 118 -53 165q-52 48 -167 48q-134 0 -175 -90q-13 -31 -13 -71.5t19.5 -71.5t51.5 -57q52 -42 125 -74l119 -53q301 -140 305 -334q2 -164 -127 -264q-117 -92 -284 -92q-80 0 -171 19q-145 29 -167 29h-38q-15 0 -26 -2
q4 190 19 312h130q5 -123 66.5 -180t195.5 -57q152 0 191 86q14 31 14 81.5t-26.5 87.5t-66 63t-86 45t-97 42.5t-111 55.5t-109.5 75q-112 99 -114 237q-2 154 132 247q121 83 285 83q46 0 96 -8q94 -15 133 -15t102 15z" />
    <glyph glyph-name="t" unicode="t" horiz-adv-x="852" 
d="M767 213l44 -85q-99 -92 -253 -130q-49 -13 -103 -13t-99.5 12t-75.5 41q-58 56 -64 199v800h-174l8 102q140 25 194 105q43 64 73 253h109v-307h369v-153h-377v-684q0 -125 36 -165q30 -33 125 -33t188 58z" />
    <glyph glyph-name="u" unicode="u" 
d="M1288 182l8 1h5l-3 -124l-294 -76q-43 67 -57 157q-108 -90 -283 -140q-60 -17 -123.5 -17t-126 21t-108.5 64q-97 91 -97 266l8 565q0 100 -31 129q-23 21 -95 28l15 98l344 56l-20 -186q-21 -192 -21 -584q0 -160 45 -224q44 -65 156 -65q101 0 175 29q118 48 149 86
l-2 -1v624q0 105 -41 135q-32 25 -143 27l15 103l387 56q-3 -52 -6 -90l-4 -67q-2 -33 -4 -59.5t-3 -55.5q-2 -58 -2 -157v-476q0 -96 16.5 -117t31 -23t31.5 -2h9q31 0 69 19z" />
    <glyph glyph-name="v" unicode="v" horiz-adv-x="1196" 
d="M1168 1079q-21 3 -32 3t-24 -13.5t-26 -37.5t-26 -57l-30 -72q-5 -13 -25 -58l-372 -833l8 -3l-77 -25l-8 1l-421 945q-19 44 -32 71.5t-39 55t-58 27.5h-8q-7 0 -13 -1l14 108h504l-15 -106q-16 -3 -41 -3t-39.5 -3t-29.5 -12q-36 -24 -36 -72q0 -29 24 -94
q53 -136 81 -202l135 -308q19 -41 26 -60q6 -17 13 -64l254 637q22 64 22 96q0 55 -48 77q-17 7 -43.5 7t-63.5 -6l17 113h428z" />
    <glyph glyph-name="w" unicode="w" horiz-adv-x="1877" 
d="M1855 1074q-20 8 -37.5 8t-34.5 -15.5t-33 -42.5q-28 -49 -62 -146l-317 -877l-119 -19l-235 644l-46 118q-12 35 -16 67l-281 -810l-111 -18l-8 1l-361 951q-16 44 -17 46q-20 59 -59 79.5t-95 20.5l14 108h552l-20 -115q-35 7 -67.5 7t-50.5 -3t-30 -12
q-25 -17 -25 -56t10 -84t27 -98t38 -110l85 -222q20 -52 34 -88q19 -52 34 -130q158 409 202 547l61 194q5 16 10 37.5t10 43.5q8 36 14 72q60 0 130 19q41 -207 175 -589l96 -268q11 -29 16 -55l209 622q18 54 18 105q0 76 -91 76q-24 0 -67 -6l17 114h450z" />
    <glyph glyph-name="x" unicode="x" horiz-adv-x="1364" 
d="M753 106q121 0 121 41q0 25 -38 78q-118 159 -191 250q-30 -38 -57 -76q-71 -100 -85.5 -122t-28.5 -41q-50 -66 -50 -83.5t7 -25t19 -11.5q24 -10 43 -10q42 0 76 14l-14 -120h-476l12 106q81 0 114.5 26t65.5 66l295 375l-158 195l-196 248q-48 65 -140 65l12 108h522
l-14 -115q-22 7 -58 7q-71 0 -71 -44q0 -46 60 -125l179 -228l124 146q44 55 69 92q50 76 50 113q0 46 -61 46q-30 0 -68 -5l16 113h444l-16 -108q-89 0 -207 -154l-271 -338l243 -295l112 -141q17 -20 44 -33.5t45 -13.5q31 0 62 14l-15 -120h-525l-7 2q3 54 12 104z" />
    <glyph glyph-name="y" unicode="y" horiz-adv-x="1193" 
d="M1248 1074q-21 3 -34.5 3t-26.5 -12.5t-26.5 -35.5t-28.5 -55l-31 -73q-48 -113 -100 -251l-233 -618l-62 -158q-73 -177 -112 -235t-76 -90q-77 -67 -180 -67q-106 0 -210 92q-30 27 -52 57l65 111l9 1q118 -66 198 -66q108 0 183 158q20 42 35 81l39 101l-84 39l-3 1
l-348 857q-19 46 -32.5 81t-45.5 59t-49 24h-21q-4 0 -15 -1l14 112h506l-14 -110q-18 -3 -41 -3h-27q-48 0 -69 -38q-9 -17 -9 -40t12 -65.5t32 -100.5q61 -168 96 -254q149 -373 161 -401q93 254 114 317l91 262q77 211 77 259q0 63 -88 63q-33 0 -75 -6l17 117h461z" />
    <glyph glyph-name="z" unicode="z" horiz-adv-x="1195" 
d="M799 1069q-58 2 -119 2q-227 0 -301 -32q-89 -39 -103 -192h-129l34 343h876l17 -103q-5 -6 -33 -42q-408 -565 -491.5 -688.5t-153.5 -240.5q279 0 352.5 11t102.5 24.5t54 42.5q53 60 81 193h125l-47 -387h-906l-39 87v2l465 659l122 178q56 83 93 143z" />
    <glyph glyph-name="braceleft" unicode="{" horiz-adv-x="1085" 
d="M630 -200q38 -13 92.5 -13t98.5 22l-2 -142q-40 -4 -109 -4t-144 32t-129 87q-114 116 -114 286q0 60 18 116t39.5 112.5t39 111.5t17.5 108t-12.5 89t-40.5 60q-56 47 -189 47v127q192 0 229 107q13 36 13 89.5t-18 109t-39 111.5q-22 56 -39.5 111t-17.5 127t30 146
t84 129q117 119 294 119q41 0 77 -4h11l2 -142q-44 22 -98.5 22t-92.5 -13.5t-61 -40.5q-42 -49 -42 -166q0 -80 36.5 -181t52.5 -156.5t16 -133.5t-49.5 -161t-138.5 -137q90 -54 139 -136.5t49 -160.5t-16 -133.5t-36 -111.5q-53 -148 -53 -215.5t9.5 -109t32.5 -68.5
t61 -40z" />
    <glyph glyph-name="bar" unicode="|" horiz-adv-x="855" 
d="M350 1868h153v-2207h-153v2207z" />
    <glyph glyph-name="braceright" unicode="}" horiz-adv-x="1085" 
d="M432 -200q-38 -13 -92.5 -13t-98.5 22l2 -142q40 -4 109 -4t144 32t129 87q114 116 114 286q0 60 -18 116t-39.5 112.5t-39 111.5t-17.5 108t12.5 89t40.5 60q56 47 189 47v127q-192 0 -229 107q-13 36 -13 89.5t18 109t39 111.5q22 56 39.5 111t17.5 127t-30 146
t-84 129q-117 119 -294 119q-41 0 -77 -4h-11l-2 -142q44 22 98.5 22t92.5 -13.5t61 -40.5q42 -49 42 -166q0 -80 -36.5 -181t-52.5 -156.5t-16 -133.5t49.5 -161t138.5 -137q-90 -54 -139 -136.5t-49 -160.5t16 -133.5t36 -111.5q53 -148 53 -215.5t-9.5 -109t-32.5 -68.5
t-61 -40z" />
    <glyph glyph-name="asciitilde" unicode="~" horiz-adv-x="1024" 
d="M712.5 616q52.5 0 130.5 84l63 -105q-15 -34 -59 -71q-95 -78 -188 -78q-50 0 -129 48q-3 1 -53 30t-71 39q-48 22 -78.5 22t-46 -4.5t-31.5 -14.5q-27 -16 -76 -67l-64 106q3 7 23 31t53 50q86 68 173 68q60 0 154 -56q50 -31 98.5 -56.5t101 -25.5z" />
    <glyph glyph-name="nonbreakingspace" unicode="&#xa0;" horiz-adv-x="683" 
 />
    <glyph glyph-name="exclamdown" unicode="&#xa1;" horiz-adv-x="684" 
d="M389 1106l22 1l65 -1183q-31 -43 -198 -78q-39 -8 -58 -8l-28 51l82 1192q47 23 115 25zM501 1407q0 -66 -47 -111q-48 -46 -96.5 -46t-78 12.5t-51.5 33.5q-47 46 -47 111q0 64 47 111t114 47q64 0 112 -47q47 -45 47 -111z" />
    <glyph glyph-name="cent" unicode="&#xa2;" horiz-adv-x="1191" 
d="M654 -17l-30 1l-24 -234h-121l25 251q-175 45 -278 183q-105 144 -105 355q0 278 149 460q138 169 356 203l25 241h121l-24 -234q121 -3 251 -43l49 -14q8 -16 8 -72t-2.5 -87.5t-5.5 -60.5q-6 -47 -13 -88q-6 -10 -67 -10t-82 9q0 103 -20.5 144.5t-50 64t-80.5 31.5
l-93 -916q42 -5 72 -5q158 0 323 91l36 -81q-98 -105 -276 -166q-69 -23 -143 -23zM614 1084q-122 -23 -200 -142q-82 -128 -82 -304t47.5 -280t145.5 -155z" />
    <glyph glyph-name="sterling" unicode="&#xa3;" horiz-adv-x="1535" 
d="M1196 208q0 73 -63 214l108 53q77 -48 122 -117q22 -35 22 -91.5t-27.5 -116t-78.5 -102.5q-106 -88 -288 -88q-105 0 -235 73l-49 25q-88 45 -152 45q-137 0 -310 -133q-14 -11 -50 48q-38 62 -33 93l69 33q65 28 101.5 51t70 51.5t58.5 65.5q56 81 56 193q0 41 -26 110
l-38 101q-118 -3 -271 -15l29 144l96 -4q49 -2 100 -3q-56 161 -56 259t35 184.5t101 150.5q143 140 376 140q53 0 153.5 -15.5t158 -61t57.5 -108.5q0 -76 -39 -143q-13 -22 -28 -34h-119q0 96 -35 146q-73 101 -220 99q-77 0 -152 -71q-80 -77 -80 -175q0 -105 54 -253
l45 -120q245 0 447 9l-28 -144q-173 13 -379 17q31 -102 31 -171t-19.5 -117t-50.5 -91q-57 -77 -152 -149q94 43 169.5 43t128.5 -20.5t96.5 -42.5t91 -41t86.5 -19t57.5 9t31.5 23q28 32 28 66z" />
    <glyph glyph-name="currency" unicode="&#xa4;" horiz-adv-x="1535" 
d="M1221 715q0 -137 -73 -257l158 -148l-121 -120l-146 158q-57 -46 -135.5 -65.5t-139.5 -19.5q-157 0 -279 85l-138 -155l-120 117l152 141q-32 32 -51.5 117t-19.5 145q0 155 77 267l-158 148l124 125l147 -166q109 82 259 82t281 -80l143 162l120 -123l-159 -142
q37 -37 58 -123.5t21 -147.5zM499 854q-21 -59 -21 -137.5t21 -138.5t59 -100q79 -83 210 -83q198 0 260 182q21 60 21 139.5t-22 139.5t-61 100q-76 80 -204 80q-199 0 -263 -182z" />
    <glyph glyph-name="yen" unicode="&#xa5;" horiz-adv-x="1625" 
d="M1055 107q80 0 124 12l-10 -119h-703l9 116l114 -4q62 0 82 18q36 34 36 112l-1 133q-175 -4 -357 -17l29 144q127 -7 328 -9l-1 196l-89 1q-150 0 -280 -9l29 144q22 -1 49.5 -3l55 -4t54.5 -4l49 -5q11 -2 23 -3l23 -2q-54 70 -101 138q-227 326 -264 374.5t-55 62
t-40 21.5q-40 13 -113 13l15 116h653l-26 -116q-114 0 -142.5 -9t-38 -23t-9.5 -38t21 -68t60.5 -107.5t95.5 -145.5l127 -181l21 -40q27 47 58 95l115 174q138 203 138 303q0 40 -60 40q-41 0 -101 -12l15 128h558l-19 -116q-87 0 -129.5 -27t-70 -59t-58.5 -80l-286 -449
q36 2 72.5 5.5t82.5 7.5q117 10 201 14l-28 -144q-112 9 -266 9l-107 -1v-196q244 3 354 9l-28 -144q-161 12 -326 16v-135q0 -89 9 -106q14 -27 72 -27z" />
    <glyph glyph-name="brokenbar" unicode="&#xa6;" horiz-adv-x="855" 
d="M350 1868h153v-965h-153v965zM350 614h153v-953h-153v953z" />
    <glyph glyph-name="section" unicode="&#xa7;" horiz-adv-x="1320" 
d="M806 -144q-84 -27 -148 -27t-155 7t-154.5 7t-99.5 -3l33 362l115 8q20 -156 69 -216q50 -61 146 -61t146.5 16.5t79.5 44.5q49 50 49 149q0 149 -131 220q-40 22 -94 41l-112 38q-207 73 -288 161q-70 76 -70 186q0 153 148 268q-112 121 -112 275q0 159 133 264
q132 103 326 103q26 0 55 -2l59 -4q101 -8 163 -8t98 3l-32 -362l-114 -8q-20 157 -68 216q-49 62 -146.5 62t-147.5 -21t-78 -53q-50 -54 -50 -126.5t16.5 -116.5t45.5 -76q51 -56 150 -89l186 -64q185 -67 258 -178q41 -61 41 -151q0 -154 -161 -256q121 -119 121 -269
q0 -159 -131 -264q-62 -49 -146 -76zM854 547q72 45 72 99t-30.5 92t-81.5 68.5t-118 56.5l-142 54q-59 21 -112 56q-75 -68 -59 -139q20 -99 151 -155q37 -16 76 -29l79 -26q83 -27 165 -77z" />
    <glyph glyph-name="dieresis" unicode="&#xa8;" horiz-adv-x="1025" 
d="M638.5 1440.5q-44.5 42.5 -44.5 87.5t12 73t32 49q44 43 111 43q62 0 105.5 -43.5t43.5 -108.5q0 -59 -44 -101t-91 -42q-80 0 -124.5 42.5zM125 1527.5q0 45.5 12 73.5t33 49q46 43 113 43q63 0 104.5 -43.5t41.5 -108.5q0 -59 -41 -101q-43 -42 -90 -42q-81 0 -127 42
t-46 87.5z" />
    <glyph glyph-name="copyright" unicode="&#xa9;" horiz-adv-x="2044" 
d="M203 614q-30 109 -30 228.5t30 229t85 203t132 169.5t170 129q196 111 427 111q230 0 427 -111q191 -107 303 -299q115 -195 115 -433q0 -233 -115 -429q-112 -190 -303 -300q-196 -114 -427 -114q-351 0 -597 244q-157 157 -217 372zM310 841q0 -310 205 -525
q130 -136 312 -188q91 -26 215 -26t253.5 57t225 157t150.5 234.5t55 264.5t-25 225.5t-70.5 177.5t-110 149t-143.5 115q-165 99 -360 99t-359 -99q-247 -149 -323 -442q-25 -95 -25 -199zM583.5 608q-40.5 85 -40.5 191.5t32 196.5t96 160q143 158 380 158q110 0 322 -26
l-29 -251h-99q-30 97 -54 119q-40 37 -128.5 37t-145.5 -26t-94 -72q-71 -88 -71 -249q0 -285 198 -340q58 -16 108.5 -16t79.5 7.5t53 26.5q46 37 81 138h99q-9 -63 -14 -101.5t-9 -61.5l-6 -43q-3 -21 -5.5 -36.5t-3.5 -22.5l-69 -12q-125 -22 -235.5 -22t-192 25.5
t-147 80t-106 139.5z" />
    <glyph glyph-name="ordfeminine" unicode="&#xaa;" horiz-adv-x="1026" 
d="M863 677q-118 0 -175 98q-90 -65 -218 -91q-34 -7 -79 -7t-99.5 19.5t-93.5 55.5q-80 74 -80 196q0 150 160 235q145 77 374 81l-3 176q-2 86 -54 122q-36 26 -100 26q-130 0 -130 -115q0 -27 6 -60h-190q-3 12 -7 25q-9 35 -13 68q-6 51 3 62l56 32q170 97 349 97
q196 0 267 -123q26 -46 26 -104.5t-2 -125.5l-8 -287q-2 -70 -2 -117.5t14.5 -74t35.5 -40.5q36 -24 89 -24q-19 -62 -88 -103l-35 -21h-3zM470 809q91 0 188 78v9l-5 283q-127 0 -217 -57q-93 -60 -93 -155q0 -68 26 -101q45 -57 101 -57z" />
    <glyph glyph-name="guillemotleft" unicode="&#xab;" horiz-adv-x="1705" 
d="M775 1122l113 -75l-305 -447l305 -449l-116 -84l-507 533zM1326 1122l113 -75l-305 -447l305 -449l-116 -84l-507 533z" />
    <glyph glyph-name="logicalnot" unicode="&#xac;" horiz-adv-x="1193" 
d="M176 669h850v-531h-194v368h-675z" />
    <glyph glyph-name="uni00AD" unicode="&#xad;" horiz-adv-x="1229" 
 />
    <glyph glyph-name="registered" unicode="&#xae;" horiz-adv-x="2039" 
d="M203 614q-30 109 -30 228.5t30 229t85 203t132 169.5t170 129q196 111 427 111q230 0 427 -111q191 -107 303 -299q115 -195 115 -433q0 -233 -115 -429q-112 -190 -303 -300q-196 -114 -427 -114q-351 0 -597 244q-157 157 -217 372zM310 841q0 -310 205 -525
q130 -136 312 -188q91 -26 215 -26t253.5 57t225 157t150.5 234.5t55 264.5t-25 225.5t-70.5 177.5t-110 149t-143.5 115q-165 99 -360 99t-359 -99q-247 -149 -323 -442q-25 -95 -25 -199zM1049 1334q323 0 323 -242q0 -96 -78 -172q-64 -63 -154 -84q11 -8 43 -48
l184 -239q46 -61 61 -65t31 -6t31.5 -2t26.5 2v-111l-138 -3q-94 0 -135 46t-78 106l-81 139q-58 115 -126 129q-17 4 -33 5v-249q0 -49 5 -59q9 -19 28 -18q44 2 94 13l-16 -113l-398 1l6 104q54 -1 74 27.5t20 85.5l-1 567q0 56 -4 66q-5 16 -30 16l-71 -1q-12 -1 -19 -1
v102h215zM1075 1215q-25 6 -64.5 6t-84.5 -11v-324q43 -2 84 -6q111 12 147 120q11 33 11 75t-13.5 71.5t-34 46t-45.5 22.5z" />
    <glyph glyph-name="macron" unicode="&#xaf;" horiz-adv-x="678" 
d="M-40 1620h765l-20 -162h-765z" />
    <glyph glyph-name="degree" unicode="&#xb0;" horiz-adv-x="1193" 
d="M595 847q-177 0 -304 125q-129 127 -129 301q0 175 129 301q128 124 304 124q175 0 303 -124q129 -125 129 -301t-129 -301q-128 -125 -303 -125zM595 978q113 0 194 83q82 84 82 212q0 126 -82 211q-80 84 -194 84t-194 -84q-82 -85 -82 -211q0 -128 82 -212
q81 -83 194 -83z" />
    <glyph glyph-name="plusminus" unicode="&#xb1;" horiz-adv-x="1370" 
d="M172 173h330v333h-354l19 163h335v362h186v-362h355l-19 -163h-336v-333h350l-20 -162h-866z" />
    <glyph glyph-name="twosuperior" unicode="&#xb2;" horiz-adv-x="1026" 
d="M124 1606q24 -4 46 -4q37 0 81.5 14.5t69 21.5t53.5 13q68 14 140 14t135.5 -15.5t110.5 -49.5q102 -71 102 -214q0 -100 -108 -226q-122 -141 -329 -266q-49 -29 -77 -43q142 0 226 9l130 13q44 10 66.5 40t33.5 94h139l-35 -294h-801q-26 20 -26 70q29 23 65 49
l218 155q275 203 275 402q0 123 -93 155q-28 10 -73 10t-86 -18.5t-67 -51.5q-50 -62 -50 -172h-142q0 90 -2 144q-2 90 -2 150z" />
    <glyph glyph-name="threesuperior" unicode="&#xb3;" horiz-adv-x="1031" 
d="M872 1434q0 -142 -156 -218q108 -22 166 -94q49 -60 49 -128.5t-31 -123t-86 -93.5q-117 -82 -304 -82q-93 0 -163 17q-117 27 -165 27l-7 2q-8 61 -8 132.5t7 118.5h100q10 -197 237 -197q164 0 199 109q10 32 10 66q0 172 -219 172h-18q-14 0 -54 -6q-7 0 -17.5 42.5
t-10.5 48.5q145 7 209.5 52.5t64.5 137.5q0 101 -86 137q-27 12 -61 12q-216 0 -219 -205h-120q-11 88 -11 146.5t7 118.5l13 -1h6q38 0 110 13q166 30 233 30t127 -13t104 -41q94 -61 94 -180z" />
    <glyph glyph-name="acute" unicode="&#xb4;" horiz-adv-x="1287" 
d="M584 1416l432 344l122 -170l-481 -287z" />
    <glyph glyph-name="mu" unicode="&#xb5;" horiz-adv-x="1537" 
d="M383 26q38 -208 129 -292q0 -95 -40 -156q-35 -53 -79 -53t-93 53q-57 62 -57 145v781l3 381q0 192 -43 251l292 56q-31 -310 -31 -784q0 -149 24 -197.5t58.5 -69t90.5 -20.5t102 14t84 37q67 39 122 104l-2 -1v600q0 199 -39 261l269 56q-15 -285 -15 -529v-380
q0 -116 32 -133q10 -5 21 -5q89 0 155 75l64 -68q-91 -143 -248 -183q-43 -11 -79 -11q-131 0 -148 179q-48 -65 -151 -118q-109 -56 -220.5 -56t-200.5 63z" />
    <glyph glyph-name="mu" unicode="&#x3bc;" horiz-adv-x="1537" 
d="M383 26q38 -208 129 -292q0 -95 -40 -156q-35 -53 -79 -53t-93 53q-57 62 -57 145v781l3 381q0 192 -43 251l292 56q-31 -310 -31 -784q0 -149 24 -197.5t58.5 -69t90.5 -20.5t102 14t84 37q67 39 122 104l-2 -1v600q0 199 -39 261l269 56q-15 -285 -15 -529v-380
q0 -116 32 -133q10 -5 21 -5q89 0 155 75l64 -68q-91 -143 -248 -183q-43 -11 -79 -11q-131 0 -148 179q-48 -65 -151 -118q-109 -56 -220.5 -56t-200.5 63z" />
    <glyph glyph-name="paragraph" unicode="&#xb6;" horiz-adv-x="1364" 
d="M666 508h-31q-177 0 -311 86q-170 110 -170 356q0 203 114 320q85 88 229 122q82 20 138.5 20t100.5 0.5t98 1t111.5 1.5t106.5 3q111 3 119 8q-12 -35 -18.5 -165.5t-6.5 -185.5v-1244h-169l3 1453l-145 -1v-1452h-162l-7 2v675z" />
    <glyph glyph-name="periodcentered" unicode="&#xb7;" horiz-adv-x="852" 
d="M424 585q-34 0 -64.5 13.5t-53.5 35.5q-51 49 -51 118q0 70 51 119q50 49 118 49q70 0 120 -49q51 -49 51 -119q0 -69 -51 -118t-120 -49z" />
    <glyph glyph-name="cedilla" unicode="&#xb8;" horiz-adv-x="1707" 
d="M558 -501.5q-46 -13.5 -133 -13.5t-152 19l12 168l11 2q70 -28 129.5 -28t78.5 6.5t32 17.5q22 18 24 45q3 40 -48 83q-40 37 -56 103q-11 47 10 83q7 10 17 24l24 36h81q-10 -21 -10 -48q0 -49 69 -108q104 -87 99 -172q-7 -109 -102 -176q-40 -28 -86 -41.5z" />
    <glyph glyph-name="onesuperior" unicode="&#xb9;" horiz-adv-x="855" 
d="M164 827h101q71 -2 84 18q19 26 19 126v359q0 76 -12 106.5t-49.5 30.5t-78.5 -10.5t-82 -19.5l-29 109l481 123q-21 -60 -24 -115l-4 -74q-1 -17 -1 -29v-453q0 -130 27 -160q12 -14 44 -14q72 0 136 15l-13 -126h-612z" />
    <glyph glyph-name="ordmasculine" unicode="&#xba;" horiz-adv-x="1026" 
d="M506 678q-102 0 -178.5 35t-125.5 100q-99 129 -95 366q4 235 113 374q114 144 309 144q201 0 304 -136q97 -129 93 -367q-4 -237 -112 -373q-112 -143 -308 -143zM424.5 824q39.5 -38 100.5 -38t94.5 23.5t52.5 70.5q29 74 30.5 214.5t-5.5 217.5t-28 139
q-47 139 -161 141q-101 2 -142 -97q-34 -85 -36 -282q-2 -184 26.5 -267.5t68 -121.5z" />
    <glyph glyph-name="guillemotright" unicode="&#xbb;" horiz-adv-x="1705" 
d="M378 1122l-113 -75l305 -447l-305 -449l116 -84l507 533zM929 1122l-113 -75l305 -447l-305 -449l116 -84l507 533z" />
    <glyph glyph-name="onequarter" unicode="&#xbc;" horiz-adv-x="2219" 
d="M1583 1901l81 -44q20 -12 26 -15l-1098 -2075l-108 60zM1647 -19q3 18 3 118v177h-449l-52 115l503 604q50 4 112 15l91 12v-603h242l-15 -143h-227v-119l2 -137q-52 -12 -104 -20t-106 -19zM1650 418v425l-327 -423zM251 829h101q71 -2 84 18q19 26 19 126v359
q0 76 -12 106.5t-49.5 30.5t-78.5 -10.5t-82 -19.5l-29 109l481 123q-21 -60 -24 -115l-4 -74q-1 -17 -1 -29v-453q0 -130 27 -160q12 -14 45 -14q71 0 135 15l-13 -126h-612z" />
    <glyph glyph-name="onehalf" unicode="&#xbd;" horiz-adv-x="2219" 
d="M1583 1901l81 -44q20 -12 26 -15l-1098 -2075l-108 60zM1305 898q24 -4 47 -4q36 0 80.5 14.5t69 21.5t53.5 13q68 14 140 14t135.5 -15.5t111.5 -49.5q101 -71 101 -214q0 -100 -109 -226q-121 -141 -328 -266q-49 -29 -77 -43q142 0 226 9l130 13q44 10 66.5 40
t33.5 94h139l-35 -294h-801q-26 20 -26 70q29 23 64 49l218 155q276 203 276 402q0 123 -94 155q-27 10 -72 10t-86 -18.5t-67 -51.5q-50 -62 -50 -172h-142q0 90 -1 144q-3 90 -3 150zM246 829h101q71 -2 84 18q19 26 19 126v359q0 76 -12 106.5t-49.5 30.5t-78.5 -10.5
t-82 -19.5l-29 109l481 123q-21 -60 -24 -115l-4 -74q-1 -17 -1 -29v-453q0 -130 27 -160q12 -14 44 -14q72 0 136 15l-13 -126h-612z" />
    <glyph glyph-name="threequarters" unicode="&#xbe;" horiz-adv-x="2219" 
d="M1583 1901l81 -44q20 -12 26 -15l-1098 -2075l-108 60zM1647 -19q3 18 3 118v177h-449l-52 115l503 604q50 4 112 15l91 12v-603h242l-15 -143h-227v-119l2 -137q-52 -12 -104 -20t-106 -19zM1650 418v425l-327 -423zM870 1436q0 -142 -156 -218q108 -22 166 -94
q49 -60 49 -128.5t-31 -123t-86 -93.5q-117 -82 -304 -82q-93 0 -163 17q-117 27 -165 27l-7 2q-8 61 -8 132.5t7 118.5h100q10 -197 237 -197q164 0 199 109q10 32 10 66q0 172 -219 172h-18q-14 0 -54 -6q-7 0 -17.5 42.5t-10.5 48.5q145 7 209.5 52.5t64.5 137.5
q0 101 -86 137q-27 12 -61 12q-216 0 -219 -205h-120q-11 88 -11 146.5t7 118.5l13 -1h6q38 0 110 13q166 30 233 30t127 -13t104 -41q94 -61 94 -180z" />
    <glyph glyph-name="questiondown" unicode="&#xbf;" horiz-adv-x="1537" 
d="M631 1081q33 10 111 10t117 -13t68 -38q62 -53 62 -142q0 -138 -149 -260l-170 -137q-145 -121 -145 -260q0 -140 81 -225q78 -81 189 -81q223 0 285 199q18 60 18 136q74 0 161 -14q15 -67 15 -137q0 -92 -5 -157q-43 -11 -79 -25l-142 -59q-129 -53 -284 -53
q-182 0 -317 72q-111 58 -157 173q-25 60 -25 136t28 133.5t73 106.5t100 91l193 139q133 99 133 187q0 85 -72 94q-20 3 -40 3t-48 -7zM937 1420q0 -65 -47 -111q-48 -46 -113 -46t-113 46q-47 46 -47 111q0 64 47 111t113 47t113 -47t47 -111z" />
    <glyph glyph-name="Agrave" unicode="&#xc0;" horiz-adv-x="1533" 
d="M9 109q76 0 102 20q40 31 70 103h-1l500 1298q56 0 108 17t65 26l462 -1238q54 -157 119 -209q20 -16 37 -16q50 0 80 19l-22 -129h-595l15 110q169 -3 183 64q5 20 0 44l-128 339h-534l-128 -366q-19 -46 22 -73q11 -8 41.5 -8t52.5 2q54 3 80 13l-16 -125h-526z
M958 680l-230 611l-215 -611h445zM402 2041l563 -260l-39 -118l-596 185z" />
    <glyph glyph-name="Aacute" unicode="&#xc1;" horiz-adv-x="1533" 
d="M9 109q76 0 102 20q40 31 70 103h-1l500 1298q56 0 108 17t65 26l462 -1238q54 -157 119 -209q20 -16 37 -16q50 0 80 19l-22 -129h-595l15 110q169 -3 183 64q5 20 0 44l-128 339h-534l-128 -366q-19 -46 22 -73q11 -8 41.5 -8t52.5 2q54 3 80 13l-16 -125h-526z
M958 680l-230 611l-215 -611h445zM535 1781l563 260l72 -193l-596 -185z" />
    <glyph glyph-name="Acircumflex" unicode="&#xc2;" horiz-adv-x="1533" 
d="M9 109q76 0 102 20q40 31 70 103h-1l500 1298q56 0 108 17t65 26l462 -1238q54 -157 119 -209q20 -16 37 -16q50 0 80 19l-22 -129h-595l15 110q169 -3 183 64q5 20 0 44l-128 339h-534l-128 -366q-19 -46 22 -73q11 -8 41.5 -8t52.5 2q54 3 80 13l-16 -125h-526z
M958 680l-230 611l-215 -611h445zM375 1767l396 273l391 -265l-64 -111l-327 157l-339 -157z" />
    <glyph glyph-name="Atilde" unicode="&#xc3;" horiz-adv-x="1533" 
d="M9 109q76 0 102 20q40 31 70 103h-1l500 1298q56 0 108 17t65 26l462 -1238q54 -157 119 -209q20 -16 37 -16q50 0 80 19l-22 -129h-595l15 110q169 -3 183 64q5 20 0 44l-128 339h-534l-128 -366q-19 -46 22 -73q11 -8 41.5 -8t52.5 2q54 3 80 13l-16 -125h-526z
M958 680l-230 611l-215 -611h445zM359 1782q3 13 23.5 44t57.5 63q92 81 199 81q54 0 97.5 -22t77.5 -44q85 -57 114 -57t48 6t36 19q31 23 75 77l89 -97q-11 -47 -57 -93q-96 -96 -204 -96q-45 0 -90 22t-83 45q-99 57 -127 57t-46.5 -6t-36.5 -19q-28 -20 -74 -77z" />
    <glyph glyph-name="Adieresis" unicode="&#xc4;" horiz-adv-x="1533" 
d="M9 109q76 0 102 20q40 31 70 103h-1l500 1298q56 0 108 17t65 26l462 -1238q54 -157 119 -209q20 -16 37 -16q50 0 80 19l-22 -129h-595l15 110q169 -3 183 64q5 20 0 44l-128 339h-534l-128 -366q-19 -46 22 -73q11 -8 41.5 -8t52.5 2q54 3 80 13l-16 -125h-526z
M958 680l-230 611l-215 -611h445zM1065.5 1747q-26.5 -11 -58 -11t-59.5 11t-48 31q-44 41 -44 86.5t11.5 73t32.5 48.5q43 43 108 43q96 0 134 -91q12 -28 12 -58.5t-11.5 -56.5t-31 -45.5t-46 -30.5zM608.5 1747q-26.5 -11 -58 -11t-60 11t-48.5 31q-45 42 -45 87t12 72.5
t33 48.5q43 43 110 43q95 0 132 -91q11 -28 11 -58.5t-11 -56.5t-30 -45.5t-45.5 -30.5z" />
    <glyph glyph-name="Aring" unicode="&#xc5;" horiz-adv-x="1533" 
d="M9 109q76 0 102 20q40 31 70 103h-1l500 1298q56 0 108 17t65 26l462 -1238q54 -157 119 -209q20 -16 37 -16q50 0 80 19l-22 -129h-595l15 110q169 -3 183 64q5 20 0 44l-128 339h-534l-128 -366q-19 -46 22 -73q11 -8 41.5 -8t52.5 2q54 3 80 13l-16 -125h-526z
M958 680l-230 611l-215 -611h445zM766 1502q-61 0 -116 19t-96 55q-85 74 -85 200q0 120 97 194q87 67 205 67q134 0 217 -73q85 -74 85 -200q0 -120 -96 -194q-87 -68 -211 -68zM873.5 1663q38.5 39 38.5 85.5t-11.5 74.5t-30.5 49q-41 45 -86 45t-70.5 -10.5t-43.5 -29.5
q-39 -40 -39 -86.5t11.5 -74t30.5 -48.5q41 -44 101.5 -44t99 39z" />
    <glyph glyph-name="AE" unicode="&#xc6;" horiz-adv-x="2049" 
d="M333 161q0 -45 57 -51q104 0 155 17l-16 -127h-568l20 109q61 0 84.5 22t37.5 45l721 1237h-140q-145 0 -275 -38l9 155h1182q242 0 358 16q0 -225 -46 -378h-97q-10 162 -62 207q-29 25 -76 31.5t-117 6.5h-376v-612h190q147 0 174 95q9 32 13 74l117 1v-49
q0 -148 -8 -272l-11 -169h-117q-6 106 -34 140t-60 45.5t-80 11.5h-184v-399q0 -98 38 -129t157 -35h196q200 0 276 173q24 54 32 122h121q0 -114 -22 -240l-31 -170h-1145l-7 2q9 77 17 108q85 0 112 24q47 40 47 135v409h-377l-241 -455q-24 -45 -24 -62zM975 801l1 587
l-312 -587h311z" />
    <glyph glyph-name="Ccedilla" unicode="&#xc7;" horiz-adv-x="1709" 
d="M766 -326q70 -28 129.5 -28t78.5 6.5t32 17.5q22 18 24 45q3 40 -48 83q-40 37 -56 103q-12 49 11 84q-320 3 -539 172q-163 125 -228 344q-33 113 -33 276t63 308.5t176 247.5q235 212 610 212q70 0 183 -13t148 -16l68 -7q77 -7 101 -7h32q7 0 22 2q2 -24 2 -113
t-32 -299h-128q-19 151 -48 209q-83 133 -363 133t-437 -184q-150 -175 -150 -463q0 -333 188 -521q172 -172 420 -172q179 0 272 68q94 69 151 247h125q2 -20 2 -50.5t-3.5 -70t-8.5 -76.5q-13 -84 -26 -120q-184 -92 -455 -104q6 -45 68 -100q104 -87 99 -172
q-7 -109 -102 -176q-78 -55 -192 -55t-179 19l12 168z" />
    <glyph glyph-name="Egrave" unicode="&#xc8;" horiz-adv-x="1368" 
d="M955 600l-2 -32h-123q-7 113 -26 142q-34 51 -123 51h-201v-482q0 -97 37 -129q36 -31 155 -35h191q200 0 276 173q24 54 32 122h124q0 -114 -23 -240l-30 -170h-1155l17 110q100 0 131 44q28 38 28 153v914q0 193 -87 193q-36 0 -76 -9l12 125h776q241 0 361 16
q0 -160 -31 -320q-8 -38 -14 -58h-102q-10 162 -62 205q-29 24 -75.5 30t-116.5 6h-368v-535h207q100 0 131 43q20 27 32 126l122 1l1 -53q0 -127 -18 -391zM370 2041l563 -260l-39 -118l-596 185z" />
    <glyph glyph-name="Eacute" unicode="&#xc9;" horiz-adv-x="1368" 
d="M955 600l-2 -32h-123q-7 113 -26 142q-34 51 -123 51h-201v-482q0 -97 37 -129q36 -31 155 -35h191q200 0 276 173q24 54 32 122h124q0 -114 -23 -240l-30 -170h-1155l17 110q100 0 131 44q28 38 28 153v914q0 193 -87 193q-36 0 -76 -9l12 125h776q241 0 361 16
q0 -160 -31 -320q-8 -38 -14 -58h-102q-10 162 -62 205q-29 24 -75.5 30t-116.5 6h-368v-535h207q100 0 131 43q20 27 32 126l122 1l1 -53q0 -127 -18 -391zM503 1781l563 260l72 -193l-596 -185z" />
    <glyph glyph-name="Ecircumflex" unicode="&#xca;" horiz-adv-x="1368" 
d="M955 600l-2 -32h-123q-7 113 -26 142q-34 51 -123 51h-201v-482q0 -97 37 -129q36 -31 155 -35h191q200 0 276 173q24 54 32 122h124q0 -114 -23 -240l-30 -170h-1155l17 110q100 0 131 44q28 38 28 153v914q0 193 -87 193q-36 0 -76 -9l12 125h776q241 0 361 16
q0 -160 -31 -320q-8 -38 -14 -58h-102q-10 162 -62 205q-29 24 -75.5 30t-116.5 6h-368v-535h207q100 0 131 43q20 27 32 126l122 1l1 -53q0 -127 -18 -391zM343 1767l396 273l391 -265l-64 -111l-327 157l-339 -157z" />
    <glyph glyph-name="Edieresis" unicode="&#xcb;" horiz-adv-x="1368" 
d="M955 600l-2 -32h-123q-7 113 -26 142q-34 51 -123 51h-201v-482q0 -97 37 -129q36 -31 155 -35h191q200 0 276 173q24 54 32 122h124q0 -114 -23 -240l-30 -170h-1155l17 110q100 0 131 44q28 38 28 153v914q0 193 -87 193q-36 0 -76 -9l12 125h776q241 0 361 16
q0 -160 -31 -320q-8 -38 -14 -58h-102q-10 162 -62 205q-29 24 -75.5 30t-116.5 6h-368v-535h207q100 0 131 43q20 27 32 126l122 1l1 -53q0 -127 -18 -391zM1033.5 1747q-26.5 -11 -58 -11t-59.5 11t-48 31q-44 41 -44 86.5t11.5 73t32.5 48.5q43 43 108 43q96 0 134 -91
q12 -28 12 -58.5t-11.5 -56.5t-31 -45.5t-46 -30.5zM576.5 1747q-26.5 -11 -58 -11t-60 11t-48.5 31q-45 42 -45 87t12 72.5t33 48.5q43 43 110 43q95 0 132 -91q11 -28 11 -58.5t-11 -56.5t-30 -45.5t-45.5 -30.5z" />
    <glyph glyph-name="Igrave" unicode="&#xcc;" horiz-adv-x="853" 
d="M586.5 118.5q22.5 -8.5 50 -8.5t102.5 15l-12 -125h-613l11 110q98 0 142 46q51 55 51 185l-1 873q0 170 -51 193q-16 7 -37 7q-59 0 -107 -9l16 125h585l-16 -116q-113 0 -144 -38q-29 -34 -29 -155v-950q0 -96 15 -120t37.5 -32.5zM54 2041l563 -260l-39 -118l-596 185
z" />
    <glyph glyph-name="Iacute" unicode="&#xcd;" horiz-adv-x="853" 
d="M586.5 118.5q22.5 -8.5 50 -8.5t102.5 15l-12 -125h-613l11 110q98 0 142 46q51 55 51 185l-1 873q0 170 -51 193q-16 7 -37 7q-59 0 -107 -9l16 125h585l-16 -116q-113 0 -144 -38q-29 -34 -29 -155v-950q0 -96 15 -120t37.5 -32.5zM187 1781l563 260l72 -193l-596 -185
z" />
    <glyph glyph-name="Icircumflex" unicode="&#xce;" horiz-adv-x="853" 
d="M586.5 118.5q22.5 -8.5 50 -8.5t102.5 15l-12 -125h-613l11 110q98 0 142 46q51 55 51 185l-1 873q0 170 -51 193q-16 7 -37 7q-59 0 -107 -9l16 125h585l-16 -116q-113 0 -144 -38q-29 -34 -29 -155v-950q0 -96 15 -120t37.5 -32.5zM26 1767l396 273l391 -265l-64 -111
l-327 157l-339 -157z" />
    <glyph glyph-name="Idieresis" unicode="&#xcf;" horiz-adv-x="853" 
d="M586.5 118.5q22.5 -8.5 50 -8.5t102.5 15l-12 -125h-613l11 110q98 0 142 46q51 55 51 185l-1 873q0 170 -51 193q-16 7 -37 7q-59 0 -107 -9l16 125h585l-16 -116q-113 0 -144 -38q-29 -34 -29 -155v-950q0 -96 15 -120t37.5 -32.5zM717.5 1747q-26.5 -11 -58 -11
t-59.5 11t-48 31q-44 41 -44 86.5t11.5 73t32.5 48.5q43 43 108 43q96 0 134 -91q12 -28 12 -58.5t-11.5 -56.5t-31 -45.5t-46 -30.5zM260.5 1747q-26.5 -11 -58 -11t-60 11t-48.5 31q-45 42 -45 87t12 72.5t33 48.5q43 43 110 43q95 0 132 -91q11 -28 11 -58.5t-11 -56.5
t-30 -45.5t-45.5 -30.5z" />
    <glyph glyph-name="Eth" unicode="&#xd0;" horiz-adv-x="1539" 
d="M708 -13l-334 14l-281 1l7 110q90 0 120 26q53 46 53 150v436h-164l20 127h144v380q0 105 -21 136.5t-41 40.5t-50 9t-69 -12l10 127h252l365 15q776 0 776 -736q0 -373 -215 -598q-216 -226 -572 -226zM824 1418q-78 13 -161.5 13t-172.5 -20v-560h352l-20 -127h-332
v-514q0 -50 7.5 -62t22.5 -17.5t44 -8.5q47 -5 169.5 -5t216.5 36.5t162 114.5q144 167 144 497q0 582 -432 653z" />
    <glyph glyph-name="Ntilde" unicode="&#xd1;" horiz-adv-x="1706" 
d="M1512 17q-81 -7 -132 -36q-66 99 -156 222l-193 260l-219 283l-398 504v-949q0 -103 19.5 -137t39.5 -44t43 -10t43 1.5t38 4.5l33 4q16 2 25 4l-12 -124h-558l13 110q93 0 120 21q51 40 51 153v937q0 111 -13 139.5t-30.5 37t-43.5 8.5q-32 0 -101 -11l15 135h418
q32 -96 93 -180l131 -178q526 -682 614 -789v861q0 117 -12 139.5t-28.5 27t-50 4.5t-104.5 -11l11 126h514l-14 -115q-57 0 -91 -1.5t-51 -15.5q-29 -21 -29 -129v-1016q0 -116 15 -236zM465 1782q3 13 23.5 44t57.5 63q92 81 199 81q54 0 97.5 -22t77.5 -44
q85 -57 114 -57t48 6t36 19q31 23 75 77l89 -97q-11 -47 -57 -93q-96 -96 -204 -96q-45 0 -90 22t-83 45q-99 57 -127 57t-46.5 -6t-36.5 -19q-28 -20 -74 -77z" />
    <glyph glyph-name="Ograve" unicode="&#xd2;" horiz-adv-x="1709" 
d="M170.5 416q-50.5 140 -47.5 312.5t55.5 319.5t151.5 258q214 240 576 240q305 0 493 -198q193 -204 193 -551q-13 -342 -211 -569q-134 -153 -342 -213q-105 -30 -242.5 -30t-265 49.5t-219 145.5t-142 236zM641.5 163q94.5 -51 207 -51t201 38t154.5 116
q143 168 147 467q6 310 -120 494q-132 191 -377 191q-212 0 -343 -152q-142 -164 -148 -465q-6 -312 121 -496q63 -91 157.5 -142zM509 2041l563 -260l-39 -118l-596 185z" />
    <glyph glyph-name="Oacute" unicode="&#xd3;" horiz-adv-x="1709" 
d="M170.5 416q-50.5 140 -47.5 312.5t55.5 319.5t151.5 258q214 240 576 240q305 0 493 -198q193 -204 193 -551q-13 -342 -211 -569q-134 -153 -342 -213q-105 -30 -242.5 -30t-265 49.5t-219 145.5t-142 236zM641.5 163q94.5 -51 207 -51t201 38t154.5 116
q143 168 147 467q6 310 -120 494q-132 191 -377 191q-212 0 -343 -152q-142 -164 -148 -465q-6 -312 121 -496q63 -91 157.5 -142zM642 1781l563 260l72 -193l-596 -185z" />
    <glyph glyph-name="Ocircumflex" unicode="&#xd4;" horiz-adv-x="1709" 
d="M170.5 416q-50.5 140 -47.5 312.5t55.5 319.5t151.5 258q214 240 576 240q305 0 493 -198q193 -204 193 -551q-13 -342 -211 -569q-134 -153 -342 -213q-105 -30 -242.5 -30t-265 49.5t-219 145.5t-142 236zM641.5 163q94.5 -51 207 -51t201 38t154.5 116
q143 168 147 467q6 310 -120 494q-132 191 -377 191q-212 0 -343 -152q-142 -164 -148 -465q-6 -312 121 -496q63 -91 157.5 -142zM482 1767l396 273l391 -265l-64 -111l-327 157l-339 -157z" />
    <glyph glyph-name="Otilde" unicode="&#xd5;" horiz-adv-x="1709" 
d="M170.5 416q-50.5 140 -47.5 312.5t55.5 319.5t151.5 258q214 240 576 240q305 0 493 -198q193 -204 193 -551q-13 -342 -211 -569q-134 -153 -342 -213q-105 -30 -242.5 -30t-265 49.5t-219 145.5t-142 236zM641.5 163q94.5 -51 207 -51t201 38t154.5 116
q143 168 147 467q6 310 -120 494q-132 191 -377 191q-212 0 -343 -152q-142 -164 -148 -465q-6 -312 121 -496q63 -91 157.5 -142zM466 1782q3 13 23.5 44t57.5 63q92 81 199 81q54 0 97.5 -22t77.5 -44q85 -57 114 -57t48 6t36 19q31 23 75 77l89 -97q-11 -47 -57 -93
q-96 -96 -204 -96q-45 0 -90 22t-83 45q-99 57 -127 57t-46.5 -6t-36.5 -19q-28 -20 -74 -77z" />
    <glyph glyph-name="Odieresis" unicode="&#xd6;" horiz-adv-x="1709" 
d="M170.5 416q-50.5 140 -47.5 312.5t55.5 319.5t151.5 258q214 240 576 240q305 0 493 -198q193 -204 193 -551q-13 -342 -211 -569q-134 -153 -342 -213q-105 -30 -242.5 -30t-265 49.5t-219 145.5t-142 236zM641.5 163q94.5 -51 207 -51t201 38t154.5 116
q143 168 147 467q6 310 -120 494q-132 191 -377 191q-212 0 -343 -152q-142 -164 -148 -465q-6 -312 121 -496q63 -91 157.5 -142zM1172.5 1747q-26.5 -11 -58 -11t-59.5 11t-48 31q-44 41 -44 86.5t11.5 73t32.5 48.5q43 43 108 43q96 0 134 -91q12 -28 12 -58.5
t-11.5 -56.5t-31 -45.5t-46 -30.5zM715.5 1747q-26.5 -11 -58 -11t-60 11t-48.5 31q-45 42 -45 87t12 72.5t33 48.5q43 43 110 43q95 0 132 -91q11 -28 11 -58.5t-11 -56.5t-30 -45.5t-45.5 -30.5z" />
    <glyph glyph-name="multiply" unicode="&#xd7;" horiz-adv-x="1193" 
d="M479 591l-253 259l131 104l237 -243l244 253l124 -116l-249 -258l252 -257l-132 -104l-236 241l-226 -234l-123 116z" />
    <glyph glyph-name="Oslash" unicode="&#xd8;" horiz-adv-x="1709" 
d="M1038 17q-105 -30 -227 -30t-233 33l-94 -208l-156 69l97 208q-223 139 -285 435q-20 98 -17.5 238.5t55 287.5t151.5 258q214 240 576 240q102 0 192 -24l90 195l161 -64l-93 -194q242 -137 313 -442q23 -102 23 -220q-13 -342 -211 -569q-134 -153 -342 -213z
M640.5 165q94.5 -51 207 -51t201 38t154.5 116q143 168 147 467q6 310 -120 494q-132 191 -377 191q-212 0 -343 -152q-142 -164 -148 -465q-6 -312 121 -496q63 -91 157.5 -142z" />
    <glyph glyph-name="Ugrave" unicode="&#xd9;" horiz-adv-x="1537" 
d="M1154.5 1403.5q-19.5 10.5 -48.5 10.5t-84 -12l11 128h481l-15 -116q-95 0 -119 -44q-20 -38 -20 -177v-583q0 -308 -139.5 -466.5t-431.5 -158.5q-307 0 -457 174q-137 160 -137 458v397l-1 188v58q0 107 -14.5 128t-29.5 23.5t-30 2.5q-31 0 -84 -12l14 128h563
l-15 -116q-123 0 -154 -33q-30 -32 -30 -160v-575q0 -534 374 -534q129 0 194 29t103.5 66t66.5 95q57 123 57 334v560q0 123 -17.5 160t-37 47.5zM471 2041l563 -260l-39 -118l-596 185z" />
    <glyph glyph-name="Uacute" unicode="&#xda;" horiz-adv-x="1537" 
d="M1154.5 1403.5q-19.5 10.5 -48.5 10.5t-84 -12l11 128h481l-15 -116q-95 0 -119 -44q-20 -38 -20 -177v-583q0 -308 -139.5 -466.5t-431.5 -158.5q-307 0 -457 174q-137 160 -137 458v397l-1 188v58q0 107 -14.5 128t-29.5 23.5t-30 2.5q-31 0 -84 -12l14 128h563
l-15 -116q-123 0 -154 -33q-30 -32 -30 -160v-575q0 -534 374 -534q129 0 194 29t103.5 66t66.5 95q57 123 57 334v560q0 123 -17.5 160t-37 47.5zM604 1781l563 260l72 -193l-596 -185z" />
    <glyph glyph-name="Ucircumflex" unicode="&#xdb;" horiz-adv-x="1537" 
d="M1154.5 1403.5q-19.5 10.5 -48.5 10.5t-84 -12l11 128h481l-15 -116q-95 0 -119 -44q-20 -38 -20 -177v-583q0 -308 -139.5 -466.5t-431.5 -158.5q-307 0 -457 174q-137 160 -137 458v397l-1 188v58q0 107 -14.5 128t-29.5 23.5t-30 2.5q-31 0 -84 -12l14 128h563
l-15 -116q-123 0 -154 -33q-30 -32 -30 -160v-575q0 -534 374 -534q129 0 194 29t103.5 66t66.5 95q57 123 57 334v560q0 123 -17.5 160t-37 47.5zM444 1767l396 273l391 -265l-64 -111l-327 157l-339 -157z" />
    <glyph glyph-name="Udieresis" unicode="&#xdc;" horiz-adv-x="1537" 
d="M1154.5 1403.5q-19.5 10.5 -48.5 10.5t-84 -12l11 128h481l-15 -116q-95 0 -119 -44q-20 -38 -20 -177v-583q0 -308 -139.5 -466.5t-431.5 -158.5q-307 0 -457 174q-137 160 -137 458v397l-1 188v58q0 107 -14.5 128t-29.5 23.5t-30 2.5q-31 0 -84 -12l14 128h563
l-15 -116q-123 0 -154 -33q-30 -32 -30 -160v-575q0 -534 374 -534q129 0 194 29t103.5 66t66.5 95q57 123 57 334v560q0 123 -17.5 160t-37 47.5zM1136.5 1747q-26.5 -11 -58 -11t-59.5 11t-48 31q-44 41 -44 86.5t11.5 73t32.5 48.5q43 43 108 43q96 0 134 -91
q12 -28 12 -58.5t-11.5 -56.5t-31 -45.5t-46 -30.5zM679.5 1747q-26.5 -11 -58 -11t-60 11t-48.5 31q-45 42 -45 87t12 72.5t33 48.5q43 43 110 43q95 0 132 -91q11 -28 11 -58.5t-11 -56.5t-30 -45.5t-45.5 -30.5z" />
    <glyph glyph-name="Yacute" unicode="&#xdd;" horiz-adv-x="1364" 
d="M863.5 119.5q20.5 -10.5 76.5 -10.5t120 16l-9 -125h-698l8 109h43q128 0 157 24.5t36.5 58t7.5 88.5v254l-479 795q-32 47 -61 61q-51 24 -121 24l15 116h608l-26 -116q-103 0 -126.5 -8.5t-32 -22t-8.5 -39t14 -62t37.5 -80.5t54.5 -94l132 -210q34 -55 63 -109
l59 -125q152 283 188 357l62 129q57 123 61 150.5t3.5 45.5t-8.5 33q-20 35 -80 35q-40 0 -100 -12l15 128h558l-19 -116q-87 0 -119 -24q-49 -38 -99 -142l-377 -714v-186q0 -154 12 -186t32.5 -42.5zM487 1781l563 260l72 -193l-596 -185z" />
    <glyph glyph-name="Thorn" unicode="&#xde;" horiz-adv-x="1364" 
d="M588 117q29 -7 75.5 -7t119.5 20l-12 -130h-646l11 109q89 0 124 55q33 51 33 167l-1 883q0 169 -54 193q-16 7 -37 7q-58 0 -106 -9l16 125h584l-16 -116q-106 0 -135 -32q-27 -31 -27 -135l198 9q213 10 324.5 -29t172.5 -99q114 -114 114 -320q0 -220 -162 -362
q-156 -136 -382 -136q-91 0 -184 25l-19 117q88 -20 161 -20t140 25t115 71q102 99 102 267q0 350 -393 350q-92 0 -187 -19l-5 -865q0 -90 23.5 -113.5t52.5 -30.5z" />
    <glyph glyph-name="germandbls" unicode="&#xdf;" horiz-adv-x="1535" 
d="M992 -14q-115 0 -313 55l13 303h133q3 -204 130 -236q38 -9 82 -9q99 0 147 47.5t48 117.5t-20.5 108t-53.5 67q-45 40 -128 79.5t-129.5 66.5t-82.5 64q-80 82 -80 208q0 77 30.5 126t55.5 75l50 54q74 74 100 118q53 90 53 190q0 85 -52 150q-63 78 -171 78
q-71 0 -126 -22.5t-92 -84.5q-77 -126 -77 -460v-207q0 -456 -3 -583l-4 -169q-3 -99 -6 -119l-404 -3l15 106q114 0 153 38q34 35 34 137l1 752v5h-174l11 107q91 4 148 41q14 10 15 19q9 178 113 340q85 134 236 193q79 31 192.5 31t195.5 -29.5t132 -75.5q91 -86 91 -217
q0 -180 -139 -310q-38 -35 -68 -60l-52 -43q-73 -64 -73 -127q0 -87 106 -147q31 -17 76.5 -39t106.5 -56.5t112 -78.5q115 -99 115 -222q0 -184 -123 -285q-113 -93 -324 -93z" />
    <glyph glyph-name="agrave" unicode="&#xe0;" horiz-adv-x="1195" 
d="M1021 871l-16 -531q0 -107 65 -154q45 -33 115 -33q-4 -51 -41 -92q-65 -72 -106 -83q-62 0 -116.5 42t-84.5 123q-114 -108 -279 -153q-46 -13 -107.5 -13t-131 23.5t-116.5 66.5q-95 87 -95 237q0 182 204 283q190 94 500 94h11q0 63 -2 123l-1 40q-5 121 -87 184
q-65 50 -160 50t-153 -50.5t-58 -145.5q0 -35 8 -75h-179l-7 2q-3 16 -6 34q-9 43 -14.5 89.5t-5.5 61.5q0 22 8 32q259 183 507 183q242 0 319 -176q29 -65 29 -162zM812 301q7 126 10 270q-11 4 -66.5 4t-140 -17.5t-147.5 -50.5q-134 -71 -134 -190q0 -83 54 -139
q55 -56 142 -56q108 0 222 97q34 29 60 61v21zM152 1590l122 170l431 -344l-73 -113z" />
    <glyph glyph-name="aacute" unicode="&#xe1;" horiz-adv-x="1195" 
d="M1021 871l-16 -531q0 -107 65 -154q45 -33 115 -33q-4 -51 -41 -92q-65 -72 -106 -83q-62 0 -116.5 42t-84.5 123q-114 -108 -279 -153q-46 -13 -107.5 -13t-131 23.5t-116.5 66.5q-95 87 -95 237q0 182 204 283q190 94 500 94h11q0 63 -2 123l-1 40q-5 121 -87 184
q-65 50 -160 50t-153 -50.5t-58 -145.5q0 -35 8 -75h-179l-7 2q-3 16 -6 34q-9 43 -14.5 89.5t-5.5 61.5q0 22 8 32q259 183 507 183q242 0 319 -176q29 -65 29 -162zM812 301q7 126 10 270q-11 4 -66.5 4t-140 -17.5t-147.5 -50.5q-134 -71 -134 -190q0 -83 54 -139
q55 -56 142 -56q108 0 222 97q34 29 60 61v21zM461 1416l432 344l122 -170l-481 -287z" />
    <glyph glyph-name="acircumflex" unicode="&#xe2;" horiz-adv-x="1195" 
d="M1021 871l-16 -531q0 -107 65 -154q45 -33 115 -33q-4 -51 -41 -92q-65 -72 -106 -83q-62 0 -116.5 42t-84.5 123q-114 -108 -279 -153q-46 -13 -107.5 -13t-131 23.5t-116.5 66.5q-95 87 -95 237q0 182 204 283q190 94 500 94h11q0 63 -2 123l-1 40q-5 121 -87 184
q-65 50 -160 50t-153 -50.5t-58 -145.5q0 -35 8 -75h-179l-7 2q-3 16 -6 34q-9 43 -14.5 89.5t-5.5 61.5q0 22 8 32q259 183 507 183q242 0 319 -176q29 -65 29 -162zM812 301q7 126 10 270q-11 4 -66.5 4t-140 -17.5t-147.5 -50.5q-134 -71 -134 -190q0 -83 54 -139
q55 -56 142 -56q108 0 222 97q34 29 60 61v21zM189 1448l405 301l398 -302l-86 -106l-312 175l-326 -175z" />
    <glyph glyph-name="atilde" unicode="&#xe3;" horiz-adv-x="1195" 
d="M1021 871l-16 -531q0 -107 65 -154q45 -33 115 -33q-4 -51 -41 -92q-65 -72 -106 -83q-62 0 -116.5 42t-84.5 123q-114 -108 -279 -153q-46 -13 -107.5 -13t-131 23.5t-116.5 66.5q-95 87 -95 237q0 182 204 283q190 94 500 94h11q0 63 -2 123l-1 40q-5 121 -87 184
q-65 50 -160 50t-153 -50.5t-58 -145.5q0 -35 8 -75h-179l-7 2q-3 16 -6 34q-9 43 -14.5 89.5t-5.5 61.5q0 22 8 32q259 183 507 183q242 0 319 -176q29 -65 29 -162zM812 301q7 126 10 270q-11 4 -66.5 4t-140 -17.5t-147.5 -50.5q-134 -71 -134 -190q0 -83 54 -139
q55 -56 142 -56q108 0 222 97q34 29 60 61v21zM192 1504q3 13 22 44t53 63q88 81 195 81q54 0 97.5 -22t77.5 -44q85 -57 114 -57t48 6t36 19q31 23 75 77l89 -97q-11 -47 -57 -93q-96 -96 -204 -96q-45 0 -90 22t-83 45q-99 57 -127 57t-46.5 -6.5t-36.5 -18.5
q-28 -20 -75 -78z" />
    <glyph glyph-name="adieresis" unicode="&#xe4;" horiz-adv-x="1195" 
d="M1021 871l-16 -531q0 -107 65 -154q45 -33 115 -33q-4 -51 -41 -92q-65 -72 -106 -83q-62 0 -116.5 42t-84.5 123q-114 -108 -279 -153q-46 -13 -107.5 -13t-131 23.5t-116.5 66.5q-95 87 -95 237q0 182 204 283q190 94 500 94h11q0 63 -2 123l-1 40q-5 121 -87 184
q-65 50 -160 50t-153 -50.5t-58 -145.5q0 -35 8 -75h-179l-7 2q-3 16 -6 34q-9 43 -14.5 89.5t-5.5 61.5q0 22 8 32q259 183 507 183q242 0 319 -176q29 -65 29 -162zM812 301q7 126 10 270q-11 4 -66.5 4t-140 -17.5t-147.5 -50.5q-134 -71 -134 -190q0 -83 54 -139
q55 -56 142 -56q108 0 222 97q34 29 60 61v21zM721.5 1440.5q-44.5 42.5 -44.5 87.5t12 73t32 49q44 43 111 43q62 0 105.5 -43.5t43.5 -108.5q0 -59 -44 -101t-91 -42q-80 0 -124.5 42.5zM208 1527.5q0 45.5 12 73.5t33 49q46 43 113 43q63 0 104.5 -43.5t41.5 -108.5
q0 -59 -41 -101q-43 -42 -90 -42q-81 0 -127 42t-46 87.5z" />
    <glyph glyph-name="aring" unicode="&#xe5;" horiz-adv-x="1195" 
d="M1021 871l-16 -531q0 -107 65 -154q45 -33 115 -33q-4 -51 -41 -92q-65 -72 -106 -83q-62 0 -116.5 42t-84.5 123q-114 -108 -279 -153q-46 -13 -107.5 -13t-131 23.5t-116.5 66.5q-95 87 -95 237q0 182 204 283q190 94 500 94h11q0 63 -2 123l-1 40q-5 121 -87 184
q-65 50 -160 50t-153 -50.5t-58 -145.5q0 -35 8 -75h-179l-7 2q-3 16 -6 34q-9 43 -14.5 89.5t-5.5 61.5q0 22 8 32q259 183 507 183q242 0 319 -176q29 -65 29 -162zM812 301q7 126 10 270q-11 4 -66.5 4t-140 -17.5t-147.5 -50.5q-134 -71 -134 -190q0 -83 54 -139
q55 -56 142 -56q108 0 222 97q34 29 60 61v21zM589 1281q-60 0 -115.5 19t-95.5 54q-85 76 -85 201q0 120 96 194q87 67 206 67q132 0 217 -73q85 -74 85 -200q0 -121 -97 -195q-87 -67 -211 -67zM540.5 1414q25.5 -12 55.5 -12t56 10.5t44 29.5q39 38 39 101q0 62 -42 107
q-41 45 -101.5 45t-99 -39.5t-38.5 -86t11.5 -74t30.5 -48.5t44.5 -33z" />
    <glyph glyph-name="ae" unicode="&#xe6;" horiz-adv-x="1912" 
d="M1325 -17q-297 0 -410 218q-61 -93 -181 -159q-197 -106 -388 -42q-138 47 -190 170q-26 60 -26 144t54 155t148 118q188 94 499 94h13v2q0 87 -2.5 157.5t-27 115.5t-59.5 72q-65 50 -162.5 50t-159 -50t-61.5 -146q0 -43 8 -75h-176q-15 6 -24.5 89t-9.5 98q0 22 8 32
l86 54q211 129 440.5 129t302.5 -178q153 178 361 178q426 0 426 -496q0 -127 -30 -127h-728q0 -210 89.5 -318.5t256.5 -111.5q191 13 349 98l45 -87q-150 -125 -345 -171q-58 -13 -106 -13zM1562 714q1 21 1 32v33q0 234 -136 289q-48 20 -109 20t-111 -34.5t-87 -91.5
q-84 -125 -84 -272zM843 571q-14 4 -69 4t-139 -17.5t-146 -50.5q-133 -71 -133 -190q0 -83 54 -139q55 -56 143 -56q107 0 221 98q33 29 59 61q4 89 6 159.5t4 130.5z" />
    <glyph glyph-name="ccedilla" unicode="&#xe7;" horiz-adv-x="1191" 
d="M658 -501.5q-46 -13.5 -133 -13.5t-152 19l12 168l11 2q70 -28 129.5 -28t78.5 6.5t32 17.5q22 18 24 45q3 40 -48 83q-40 37 -56 103q-11 48 13 88q-206 26 -329 171q-127 150 -127 379q0 310 185 497q171 173 429 173q141 0 282 -43l27 -8q13 -4 23 -6q8 -16 8 -72
t-2.5 -87.5t-6 -60.5t-7.5 -52l-6 -36q-6 -10 -62 -10q-68 0 -89 9q0 119 -29.5 162.5t-74 63.5t-117 20t-134.5 -30.5t-109 -90.5q-102 -132 -102 -358q0 -323 218 -416q73 -32 172 -32q162 0 329 91l38 -81q-93 -100 -267 -160q-67 -24 -139 -28q8 -43 68 -96
q104 -87 99 -172q-7 -109 -102 -176q-40 -28 -86 -41.5z" />
    <glyph glyph-name="egrave" unicode="&#xe8;" horiz-adv-x="1195" 
d="M674 156q198 13 349 95l44 -84q-151 -125 -344 -171q-58 -13 -106 -13q-377 0 -475 333q-32 107 -32 249.5t46.5 262.5t123 204.5t175.5 130.5t205 46q425 0 425 -486v-10q0 -127 -30 -127h-736q0 -209 92.5 -318t262.5 -112zM857 714q1 21 1 32v33q0 235 -130 289
q-47 20 -100.5 20t-90.5 -16t-69.5 -44t-59.5 -65.5t-47 -82.5q-42 -93 -42 -190zM163 1590l122 170l431 -344l-73 -113z" />
    <glyph glyph-name="eacute" unicode="&#xe9;" horiz-adv-x="1195" 
d="M674 156q198 13 349 95l44 -84q-151 -125 -344 -171q-58 -13 -106 -13q-377 0 -475 333q-32 107 -32 249.5t46.5 262.5t123 204.5t175.5 130.5t205 46q425 0 425 -486v-10q0 -127 -30 -127h-736q0 -209 92.5 -318t262.5 -112zM857 714q1 21 1 32v33q0 235 -130 289
q-47 20 -100.5 20t-90.5 -16t-69.5 -44t-59.5 -65.5t-47 -82.5q-42 -93 -42 -190zM472 1416l432 344l122 -170l-481 -287z" />
    <glyph glyph-name="ecircumflex" unicode="&#xea;" horiz-adv-x="1195" 
d="M674 156q198 13 349 95l44 -84q-151 -125 -344 -171q-58 -13 -106 -13q-377 0 -475 333q-32 107 -32 249.5t46.5 262.5t123 204.5t175.5 130.5t205 46q425 0 425 -486v-10q0 -127 -30 -127h-736q0 -209 92.5 -318t262.5 -112zM857 714q1 21 1 32v33q0 235 -130 289
q-47 20 -100.5 20t-90.5 -16t-69.5 -44t-59.5 -65.5t-47 -82.5q-42 -93 -42 -190zM200 1448l405 301l398 -302l-86 -106l-312 175l-326 -175z" />
    <glyph glyph-name="edieresis" unicode="&#xeb;" horiz-adv-x="1195" 
d="M674 156q198 13 349 95l44 -84q-151 -125 -344 -171q-58 -13 -106 -13q-377 0 -475 333q-32 107 -32 249.5t46.5 262.5t123 204.5t175.5 130.5t205 46q425 0 425 -486v-10q0 -127 -30 -127h-736q0 -209 92.5 -318t262.5 -112zM857 714q1 21 1 32v33q0 235 -130 289
q-47 20 -100.5 20t-90.5 -16t-69.5 -44t-59.5 -65.5t-47 -82.5q-42 -93 -42 -190zM732.5 1440.5q-44.5 42.5 -44.5 87.5t12 73t32 49q44 43 111 43q62 0 105.5 -43.5t43.5 -108.5q0 -59 -44 -101t-91 -42q-80 0 -124.5 42.5zM219 1527.5q0 45.5 12 73.5t33 49q46 43 113 43
q63 0 104.5 -43.5t41.5 -108.5q0 -59 -41 -101q-43 -42 -90 -42q-81 0 -127 42t-46 87.5z" />
    <glyph glyph-name="igrave" unicode="&#xec;" horiz-adv-x="690" 
d="M-38 1590l121 170l381 -344l-72 -113zM510 1212q-45 -130 -45 -512l7 -466q0 -61 19 -93.5t76 -32.5q46 0 82 12l-14 -118h-537l18 106q98 0 133 54q29 46 29 153v523q0 125 -44 162q-35 30 -154 30l16 126z" />
    <glyph glyph-name="iacute" unicode="&#xed;" horiz-adv-x="683" 
d="M509 1210q-45 -130 -45 -512l7 -466q0 -61 19 -93.5t76 -32.5q46 0 82 12l-14 -118h-537l18 106q98 0 133 54q29 46 29 153v523q0 125 -44 162q-35 30 -154 30l16 126zM214 1416l432 344l122 -170l-481 -287z" />
    <glyph glyph-name="icircumflex" unicode="&#xee;" horiz-adv-x="683" 
d="M509 1210q-45 -130 -45 -512l7 -466q0 -61 19 -93.5t76 -32.5q46 0 82 12l-14 -118h-537l18 106q98 0 133 54q29 46 29 153v523q0 125 -44 162q-35 30 -154 30l16 126zM-57 1448l405 301l398 -302l-86 -106l-312 175l-326 -175z" />
    <glyph glyph-name="idieresis" unicode="&#xef;" horiz-adv-x="690" 
d="M410 1527.5q0 45.5 12 73.5t33 49q45 43 111 43q63 0 105 -43q43 -45 43 -109q0 -59 -43 -101q-44 -42 -91 -42q-79 0 -124.5 42t-45.5 87.5zM203 1409.5q-27 -11.5 -59 -11.5t-61 11.5t-50 30.5q-45 42 -45 87.5t12 73.5t33 49q45 43 112 43q98 0 135 -92
q12 -28 12 -58.5t-11.5 -56.5t-31 -45.5t-46.5 -31zM510 1212q-45 -130 -45 -512l7 -466q0 -61 19 -93.5t76 -32.5q46 0 82 12l-14 -118h-537l18 106q98 0 133 54q29 46 29 153v523q0 125 -44 162q-35 30 -154 30l16 126z" />
    <glyph glyph-name="eth" unicode="&#xf0;" horiz-adv-x="1322" 
d="M228 1747q155 -35 296 -92l123 188l116 -79l-112 -173q409 -218 539 -641q47 -153 47 -304.5t-37 -264.5t-108 -201q-159 -195 -415 -195q-412 0 -523 337q-37 110 -37 214.5t19 176t55 137t87.5 122.5t115.5 99q139 90 305 90q106 0 184 -20q-115 210 -310 333
l-130 -203l-123 78l131 198q-157 74 -263 101l20 44q16 33 20 55zM345 566q0 -89 23 -172.5t65 -149.5q94 -148 235 -148q164 0 248 104q98 123 98 407q0 169 -44 322q-112 112 -281 112q-193 0 -277 -145q-67 -114 -67 -330z" />
    <glyph glyph-name="ntilde" unicode="&#xf1;" 
d="M105 106q83 0 111 42q32 48 32 198v483q0 120 -29 159q-29 40 -134 40l16 126l358 54q-11 -81 -11 -172q128 105 268 152q60 21 124 21t124.5 -19t105.5 -62q99 -93 99 -277q0 -112 -7 -219q-19 -321 -11.5 -391t17.5 -93q19 -42 68 -42q47 0 85 12l-15 -118h-512l18 106
q83 0 114 36q13 15 19.5 41.5t11 67.5t7.5 99q6 118 6 267.5t-5.5 218t-26.5 110.5q-40 82 -176 82q-126 0 -266 -86l-48 -29v-672q0 -90 14 -109t32 -22.5t40 -3.5q51 0 95 11l-17 -117h-523zM295 1504q3 13 22 44t53 63q88 81 195 81q54 0 97.5 -22t77.5 -44
q85 -57 114 -57t48 6t36 19q31 23 75 77l89 -97q-11 -47 -57 -93q-96 -96 -204 -96q-45 0 -90 22t-83 45q-99 57 -127 57t-46.5 -6.5t-36.5 -18.5q-28 -20 -75 -78z" />
    <glyph glyph-name="ograve" unicode="&#xf2;" 
d="M115 604q0 135 50 248.5t134 193.5q173 163 425 163q244 0 387 -162q137 -155 137 -404q0 -283 -178 -473q-175 -185 -431 -185q-252 0 -393 179q-131 165 -131 440zM684 112q76 0 134.5 27t101.5 83q94 119 94 344q0 240 -92 381q-93 141 -253 141q-141 0 -229 -110
q-97 -121 -97 -347q0 -235 91 -375q93 -144 250 -144zM239 1590l122 170l431 -344l-73 -113z" />
    <glyph glyph-name="oacute" unicode="&#xf3;" 
d="M115 604q0 135 50 248.5t134 193.5q173 163 425 163q244 0 387 -162q137 -155 137 -404q0 -283 -178 -473q-175 -185 -431 -185q-252 0 -393 179q-131 165 -131 440zM684 112q76 0 134.5 27t101.5 83q94 119 94 344q0 240 -92 381q-93 141 -253 141q-141 0 -229 -110
q-97 -121 -97 -347q0 -235 91 -375q93 -144 250 -144zM548 1416l432 344l122 -170l-481 -287z" />
    <glyph glyph-name="ocircumflex" unicode="&#xf4;" 
d="M115 604q0 135 50 248.5t134 193.5q173 163 425 163q244 0 387 -162q137 -155 137 -404q0 -283 -178 -473q-175 -185 -431 -185q-252 0 -393 179q-131 165 -131 440zM684 112q76 0 134.5 27t101.5 83q94 119 94 344q0 240 -92 381q-93 141 -253 141q-141 0 -229 -110
q-97 -121 -97 -347q0 -235 91 -375q93 -144 250 -144zM276 1448l405 301l398 -302l-86 -106l-312 175l-326 -175z" />
    <glyph glyph-name="otilde" unicode="&#xf5;" 
d="M115 604q0 135 50 248.5t134 193.5q173 163 425 163q244 0 387 -162q137 -155 137 -404q0 -283 -178 -473q-175 -185 -431 -185q-252 0 -393 179q-131 165 -131 440zM684 112q76 0 134.5 27t101.5 83q94 119 94 344q0 240 -92 381q-93 141 -253 141q-141 0 -229 -110
q-97 -121 -97 -347q0 -235 91 -375q93 -144 250 -144zM279 1504q3 13 22 44t53 63q88 81 195 81q54 0 97.5 -22t77.5 -44q85 -57 114 -57t48 6t36 19q31 23 75 77l89 -97q-11 -47 -57 -93q-96 -96 -204 -96q-45 0 -90 22t-83 45q-99 57 -127 57t-46.5 -6.5t-36.5 -18.5
q-28 -20 -75 -78z" />
    <glyph glyph-name="odieresis" unicode="&#xf6;" 
d="M115 604q0 135 50 248.5t134 193.5q173 163 425 163q244 0 387 -162q137 -155 137 -404q0 -283 -178 -473q-175 -185 -431 -185q-252 0 -393 179q-131 165 -131 440zM684 112q76 0 134.5 27t101.5 83q94 119 94 344q0 240 -92 381q-93 141 -253 141q-141 0 -229 -110
q-97 -121 -97 -347q0 -235 91 -375q93 -144 250 -144zM808.5 1440.5q-44.5 42.5 -44.5 87.5t12 73t32 49q44 43 111 43q62 0 105.5 -43.5t43.5 -108.5q0 -59 -44 -101t-91 -42q-80 0 -124.5 42.5zM295 1527.5q0 45.5 12 73.5t33 49q46 43 113 43q63 0 104.5 -43.5
t41.5 -108.5q0 -59 -41 -101q-43 -42 -90 -42q-81 0 -127 42t-46 87.5z" />
    <glyph glyph-name="divide" unicode="&#xf7;" horiz-adv-x="1193" 
d="M175 669h860l-19 -163h-860zM441 1033q0 65 47 111q48 46 113 46t113 -46q47 -46 47 -111q0 -64 -47 -111t-113 -47t-113 47t-47 111zM441 131q0 65 47 111q48 46 113 46t113 -46q47 -46 47 -111q0 -64 -47 -111t-113 -47t-113 47t-47 111z" />
    <glyph glyph-name="oslash" unicode="&#xf8;" 
d="M797 9q-78 -22 -151 -22t-136 13l-63 -168h-150l82 216q-199 110 -251 376q-17 83 -17 200t50 230.5t134 193.5q173 163 425 163q57 0 109 -10l60 158h151l-77 -201q204 -99 263 -347q18 -79 18 -170.5t-21.5 -177.5t-61.5 -159t-95.5 -132t-123 -100t-145.5 -63z
M680 114q76 0 134.5 27t101.5 83q94 119 94 344q0 240 -92 381q-93 141 -253 141q-141 0 -229 -110q-97 -121 -97 -347q0 -235 91 -375q93 -144 250 -144z" />
    <glyph glyph-name="ugrave" unicode="&#xf9;" 
d="M1288 182l8 1h5l-3 -124l-294 -76q-43 67 -57 157q-108 -90 -283 -140q-60 -17 -123.5 -17t-126 21t-108.5 64q-97 91 -97 266l8 565q0 100 -31 129q-23 21 -95 28l15 98l344 56l-20 -186q-21 -192 -21 -584q0 -160 45 -224q44 -65 156 -65q101 0 175 29q118 48 149 86
l-2 -1v624q0 105 -41 135q-32 25 -143 27l15 103l387 56q-3 -52 -6 -90l-4 -67q-2 -33 -4 -59.5t-3 -55.5q-2 -58 -2 -157v-476q0 -96 16.5 -117t31 -23t31.5 -2h9q31 0 69 19zM204 1590l122 170l431 -344l-73 -113z" />
    <glyph glyph-name="uacute" unicode="&#xfa;" 
d="M1288 182l8 1h5l-3 -124l-294 -76q-43 67 -57 157q-108 -90 -283 -140q-60 -17 -123.5 -17t-126 21t-108.5 64q-97 91 -97 266l8 565q0 100 -31 129q-23 21 -95 28l15 98l344 56l-20 -186q-21 -192 -21 -584q0 -160 45 -224q44 -65 156 -65q101 0 175 29q118 48 149 86
l-2 -1v624q0 105 -41 135q-32 25 -143 27l15 103l387 56q-3 -52 -6 -90l-4 -67q-2 -33 -4 -59.5t-3 -55.5q-2 -58 -2 -157v-476q0 -96 16.5 -117t31 -23t31.5 -2h9q31 0 69 19zM513 1416l432 344l122 -170l-481 -287z" />
    <glyph glyph-name="ucircumflex" unicode="&#xfb;" 
d="M1288 182l8 1h5l-3 -124l-294 -76q-43 67 -57 157q-108 -90 -283 -140q-60 -17 -123.5 -17t-126 21t-108.5 64q-97 91 -97 266l8 565q0 100 -31 129q-23 21 -95 28l15 98l344 56l-20 -186q-21 -192 -21 -584q0 -160 45 -224q44 -65 156 -65q101 0 175 29q118 48 149 86
l-2 -1v624q0 105 -41 135q-32 25 -143 27l15 103l387 56q-3 -52 -6 -90l-4 -67q-2 -33 -4 -59.5t-3 -55.5q-2 -58 -2 -157v-476q0 -96 16.5 -117t31 -23t31.5 -2h9q31 0 69 19zM241 1448l405 301l398 -302l-86 -106l-312 175l-326 -175z" />
    <glyph glyph-name="udieresis" unicode="&#xfc;" 
d="M1288 182l8 1h5l-3 -124l-294 -76q-43 67 -57 157q-108 -90 -283 -140q-60 -17 -123.5 -17t-126 21t-108.5 64q-97 91 -97 266l8 565q0 100 -31 129q-23 21 -95 28l15 98l344 56l-20 -186q-21 -192 -21 -584q0 -160 45 -224q44 -65 156 -65q101 0 175 29q118 48 149 86
l-2 -1v624q0 105 -41 135q-32 25 -143 27l15 103l387 56q-3 -52 -6 -90l-4 -67q-2 -33 -4 -59.5t-3 -55.5q-2 -58 -2 -157v-476q0 -96 16.5 -117t31 -23t31.5 -2h9q31 0 69 19zM773.5 1440.5q-44.5 42.5 -44.5 87.5t12 73t32 49q44 43 111 43q62 0 105.5 -43.5t43.5 -108.5
q0 -59 -44 -101t-91 -42q-80 0 -124.5 42.5zM260 1527.5q0 45.5 12 73.5t33 49q46 43 113 43q63 0 104.5 -43.5t41.5 -108.5q0 -59 -41 -101q-43 -42 -90 -42q-81 0 -127 42t-46 87.5z" />
    <glyph glyph-name="yacute" unicode="&#xfd;" horiz-adv-x="1193" 
d="M1248 1074q-21 3 -34.5 3t-26.5 -12.5t-26.5 -35.5t-28.5 -55l-31 -73q-48 -113 -100 -251l-233 -618l-62 -158q-73 -177 -112 -235t-76 -90q-77 -67 -180 -67q-106 0 -210 92q-30 27 -52 57l65 111l9 1q118 -66 198 -66q108 0 183 158q20 42 35 81l39 101l-84 39l-3 1
l-348 857q-19 46 -32.5 81t-45.5 59t-49 24h-21q-4 0 -15 -1l14 112h506l-14 -110q-18 -3 -41 -3h-27q-48 0 -69 -38q-9 -17 -9 -40t12 -65.5t32 -100.5q61 -168 96 -254q149 -373 161 -401q93 254 114 317l91 262q77 211 77 259q0 63 -88 63q-33 0 -75 -6l17 117h461z
M537 1416l432 344l122 -170l-481 -287z" />
    <glyph glyph-name="thorn" unicode="&#xfe;" horiz-adv-x="1362" 
d="M448 -105l1 -138v-11q0 -88 10 -106t25.5 -22.5t51.5 -4.5t70 3q88 6 98 13l-18 -137h-622l16 111q93 0 119 28q46 49 46 191v725l-6 818q0 89 -8 108.5t-16.5 29.5t-24 16.5t-34.5 8.5q-27 4 -79 4h-25l12 114l402 59q-19 -85 -19 -510l-8 -132q125 100 281 135
q49 11 111.5 11t147 -28t152.5 -94q153 -149 153 -445q0 -269 -165 -460q-169 -197 -421 -197q-135 0 -250 28v-118zM447 213q44 -65 189 -93q41 -8 104.5 -8t132.5 35t117 100q96 132 96 370q0 192 -101 308q-100 115 -262 115q-69 0 -139 -28q-116 -46 -139 -72l2 1v-728z
" />
    <glyph glyph-name="ydieresis" unicode="&#xff;" horiz-adv-x="1193" 
d="M1248 1074q-21 3 -34.5 3t-26.5 -12.5t-26.5 -35.5t-28.5 -55l-31 -73q-48 -113 -100 -251l-233 -618l-62 -158q-73 -177 -112 -235t-76 -90q-77 -67 -180 -67q-106 0 -210 92q-30 27 -52 57l65 111l9 1q118 -66 198 -66q108 0 183 158q20 42 35 81l39 101l-84 39l-3 1
l-348 857q-19 46 -32.5 81t-45.5 59t-49 24h-21q-4 0 -15 -1l14 112h506l-14 -110q-18 -3 -41 -3h-27q-48 0 -69 -38q-9 -17 -9 -40t12 -65.5t32 -100.5q61 -168 96 -254q149 -373 161 -401q93 254 114 317l91 262q77 211 77 259q0 63 -88 63q-33 0 -75 -6l17 117h461z
M797.5 1440.5q-44.5 42.5 -44.5 87.5t12 73t32 49q44 43 111 43q62 0 105.5 -43.5t43.5 -108.5q0 -59 -44 -101t-91 -42q-80 0 -124.5 42.5zM284 1527.5q0 45.5 12 73.5t33 49q46 43 113 43q63 0 104.5 -43.5t41.5 -108.5q0 -59 -41 -101q-43 -42 -90 -42q-81 0 -127 42
t-46 87.5z" />
    <glyph glyph-name="Amacron" unicode="&#x100;" horiz-adv-x="1533" 
d="M9 109q76 0 102 20q40 31 70 103h-1l500 1298q56 0 108 17t65 26l462 -1238q54 -157 119 -209q20 -16 37 -16q50 0 80 19l-22 -129h-595l15 110q169 -3 183 64q5 20 0 44l-128 339h-534l-128 -366q-19 -46 22 -73q11 -8 41.5 -8t52.5 2q54 3 80 13l-16 -125h-526z
M958 680l-230 611l-215 -611h445zM396 1970h750l-19 -156h-750z" />
    <glyph glyph-name="amacron" unicode="&#x101;" horiz-adv-x="1195" 
d="M1021 871l-16 -531q0 -107 65 -154q45 -33 115 -33q-4 -51 -41 -92q-65 -72 -106 -83q-62 0 -116.5 42t-84.5 123q-114 -108 -279 -153q-46 -13 -107.5 -13t-131 23.5t-116.5 66.5q-95 87 -95 237q0 182 204 283q190 94 500 94h11q0 63 -2 123l-1 40q-5 121 -87 184
q-65 50 -160 50t-153 -50.5t-58 -145.5q0 -35 8 -75h-179l-7 2q-3 16 -6 34q-9 43 -14.5 89.5t-5.5 61.5q0 22 8 32q259 183 507 183q242 0 319 -176q29 -65 29 -162zM812 301q7 126 10 270q-11 4 -66.5 4t-140 -17.5t-147.5 -50.5q-134 -71 -134 -190q0 -83 54 -139
q55 -56 142 -56q108 0 222 97q34 29 60 61v21zM215 1620h765l-20 -162h-765z" />
    <glyph glyph-name="Abreve" unicode="&#x102;" horiz-adv-x="1533" 
d="M9 109q76 0 102 20q40 31 70 103h-1l500 1298q56 0 108 17t65 26l462 -1238q54 -157 119 -209q20 -16 37 -16q50 0 80 19l-22 -129h-595l15 110q169 -3 183 64q5 20 0 44l-128 339h-534l-128 -366q-19 -46 22 -73q11 -8 41.5 -8t52.5 2q54 3 80 13l-16 -125h-526z
M958 680l-230 611l-215 -611h445zM758 1704q-248 0 -329 189q-26 61 -26 127l120 18q1 -2 6.5 -15.5t17 -32t29.5 -39.5t44 -39q59 -41 132 -41q117 0 190 83q33 37 52 84l130 -18q0 -95 -72 -190q-96 -126 -294 -126z" />
    <glyph glyph-name="abreve" unicode="&#x103;" horiz-adv-x="1195" 
d="M1021 871l-16 -531q0 -107 65 -154q45 -33 115 -33q-4 -51 -41 -92q-65 -72 -106 -83q-62 0 -116.5 42t-84.5 123q-114 -108 -279 -153q-46 -13 -107.5 -13t-131 23.5t-116.5 66.5q-95 87 -95 237q0 182 204 283q190 94 500 94h11q0 63 -2 123l-1 40q-5 121 -87 184
q-65 50 -160 50t-153 -50.5t-58 -145.5q0 -35 8 -75h-179l-7 2q-3 16 -6 34q-9 43 -14.5 89.5t-5.5 61.5q0 22 8 32q259 183 507 183q242 0 319 -176q29 -65 29 -162zM812 301q7 126 10 270q-11 4 -66.5 4t-140 -17.5t-147.5 -50.5q-134 -71 -134 -190q0 -83 54 -139
q55 -56 142 -56q108 0 222 97q34 29 60 61v21zM239 1696l110 14q37 -116 156 -156q38 -12 80 -12t69.5 7t50.5 19q86 45 125 144l130 -16q0 -97 -72 -192q-98 -129 -294 -129q-249 0 -329 193q-26 62 -26 128z" />
    <glyph glyph-name="Aogonek" unicode="&#x104;" horiz-adv-x="1522" 
d="M1112 -366q27 -8 64 -8t141 26v-93q-58 -45 -160 -63q-32 -5 -71.5 -5t-88.5 15t-89 44q-88 63 -88 164q0 134 136 235l71 50q102 59 102 175q0 22 -4 44l-101 274h-594l-110 -309q-18 -47 36 -67q14 -6 28 -6t32.5 1t37.5 3q46 5 72 14l-16 -128h-510l13 109
q75 0 100 20q37 29 68 103l495 1307q67 0 169 32l459 -1236q59 -157 116 -208q19 -17 34 -17q44 0 80 23l-21 -133h-185q-98 0 -198 -66q-116 -75 -116 -178q0 -94 98 -122zM981 607l-258 700l-251 -700h509z" />
    <glyph glyph-name="aogonek" unicode="&#x105;" horiz-adv-x="1195" 
d="M922 22q-55 45 -84 123q-114 -108 -280 -153q-45 -13 -106.5 -13t-131 23.5t-116.5 66.5q-95 87 -95 237q0 182 204 283q190 94 500 94h11q0 63 -2 123l-1 40q-5 121 -87 184q-65 50 -160 50t-153 -50.5t-58 -145.5q0 -35 8 -75h-179l-7 2q-3 16 -7 34q-8 43 -13.5 89.5
t-5.5 61.5q0 22 8 32q259 183 507 183q242 0 320 -176q28 -65 28 -162l-16 -531q0 -107 64 -154q46 -33 116 -33q-6 -74 -98 -147q-24 -19 -43 -26q3 -2 3 -3q-3 -3 -21.5 -12.5t-47 -27t-55.5 -43.5q-65 -61 -65 -140q0 -94 97 -122q28 -8 73.5 -8t107.5 28v-95
q-85 -67 -216 -67q-106 0 -177 58q-79 63 -79 164q0 125 163 248q28 21 53 36zM813 303q7 126 10 270q-11 4 -66.5 4t-140 -17.5t-146.5 -50.5q-135 -71 -135 -190q0 -83 54 -139q55 -56 142 -56q108 0 222 97q34 29 60 61v21z" />
    <glyph glyph-name="Cacute" unicode="&#x106;" horiz-adv-x="1709" 
d="M1540 409q2 -20 2 -50.5t-3.5 -70t-8.5 -76.5q-13 -84 -26 -120q-214 -107 -556 -107q-320 0 -546 169q-165 123 -231 345q-34 114 -34 277.5t63 309t176 247.5q235 212 610 212q70 0 183 -13t148 -16l68 -7q77 -7 101 -7h32q7 0 22 2q2 -24 2 -113t-32 -299h-128
q-19 151 -48 209q-83 133 -363 133t-437 -184q-150 -175 -150 -463q0 -333 188 -521q172 -172 420 -172q179 0 272 68q94 69 151 247h125zM726 1781l563 260l72 -193l-596 -185z" />
    <glyph glyph-name="cacute" unicode="&#x107;" horiz-adv-x="1191" 
d="M718 162q162 0 329 91l38 -81q-48 -54 -129 -98q-169 -91 -293.5 -91t-224 38.5t-172.5 110.5q-153 152 -153 407q0 310 185 497q171 173 429 173q141 0 282 -43l27 -8q13 -4 23 -6q8 -16 8 -72t-2.5 -87.5t-6 -60.5t-7.5 -52l-6 -36q-6 -10 -62 -10q-68 0 -89 9
q0 119 -29.5 162.5t-74 63.5t-117 20t-134.5 -30.5t-109 -90.5q-102 -132 -102 -358q0 -323 218 -416q73 -32 172 -32zM530 1416l432 344l122 -170l-481 -287z" />
    <glyph glyph-name="Ccircumflex" unicode="&#x108;" horiz-adv-x="1709" 
d="M1540 409q2 -20 2 -50.5t-3.5 -70t-8.5 -76.5q-13 -84 -26 -120q-214 -107 -556 -107q-320 0 -546 169q-165 123 -231 345q-34 114 -34 277.5t63 309t176 247.5q235 212 610 212q70 0 183 -13t148 -16l68 -7q77 -7 101 -7h32q7 0 22 2q2 -24 2 -113t-32 -299h-128
q-19 151 -48 209q-83 133 -363 133t-437 -184q-150 -175 -150 -463q0 -333 188 -521q172 -172 420 -172q179 0 272 68q94 69 151 247h125zM566 1767l396 273l391 -265l-64 -111l-327 157l-339 -157z" />
    <glyph glyph-name="ccircumflex" unicode="&#x109;" horiz-adv-x="1191" 
d="M718 162q162 0 329 91l38 -81q-48 -54 -129 -98q-169 -91 -293.5 -91t-224 38.5t-172.5 110.5q-153 152 -153 407q0 310 185 497q171 173 429 173q141 0 282 -43l27 -8q13 -4 23 -6q8 -16 8 -72t-2.5 -87.5t-6 -60.5t-7.5 -52l-6 -36q-6 -10 -62 -10q-68 0 -89 9
q0 119 -29.5 162.5t-74 63.5t-117 20t-134.5 -30.5t-109 -90.5q-102 -132 -102 -358q0 -323 218 -416q73 -32 172 -32zM258 1448l405 301l398 -302l-86 -106l-312 175l-326 -175z" />
    <glyph glyph-name="Cdotaccent" unicode="&#x10a;" horiz-adv-x="1709" 
d="M1540 409q2 -20 2 -50.5t-3.5 -70t-8.5 -76.5q-13 -84 -26 -120q-214 -107 -556 -107q-320 0 -546 169q-165 123 -231 345q-34 114 -34 277.5t63 309t176 247.5q235 212 610 212q70 0 183 -13t148 -16l68 -7q77 -7 101 -7h32q7 0 22 2q2 -24 2 -113t-32 -299h-128
q-19 151 -48 209q-83 133 -363 133t-437 -184q-150 -175 -150 -463q0 -333 188 -521q172 -172 420 -172q179 0 272 68q94 69 151 247h125zM808 1864q0 49 12.5 78t34.5 50q47 45 115 45q65 0 109 -45q44 -46 44 -113q0 -64 -44 -107q-45 -43 -94 -43q-83 0 -130 43t-47 92z
" />
    <glyph glyph-name="cdotaccent" unicode="&#x10b;" horiz-adv-x="1191" 
d="M718 162q162 0 329 91l38 -81q-48 -54 -129 -98q-169 -91 -293.5 -91t-224 38.5t-172.5 110.5q-153 152 -153 407q0 310 185 497q171 173 429 173q141 0 282 -43l27 -8q13 -4 23 -6q8 -16 8 -72t-2.5 -87.5t-6 -60.5t-7.5 -52l-6 -36q-6 -10 -62 -10q-68 0 -89 9
q0 119 -29.5 162.5t-74 63.5t-117 20t-134.5 -30.5t-109 -90.5q-102 -132 -102 -358q0 -323 218 -416q73 -32 172 -32zM553 1438q-45 43 -45 92t12 78t33 50q45 45 111 45q63 0 106 -45t43 -113q0 -64 -43 -107t-91 -43q-81 0 -126 43z" />
    <glyph glyph-name="Ccaron" unicode="&#x10c;" horiz-adv-x="1709" 
d="M1540 409q2 -20 2 -50.5t-3.5 -70t-8.5 -76.5q-13 -84 -26 -120q-214 -107 -556 -107q-320 0 -546 169q-165 123 -231 345q-34 114 -34 277.5t63 309t176 247.5q235 212 610 212q70 0 183 -13t148 -16l68 -7q77 -7 101 -7h32q7 0 22 2q2 -24 2 -113t-32 -299h-128
q-19 151 -48 209q-83 133 -363 133t-437 -184q-150 -175 -150 -463q0 -333 188 -521q172 -172 420 -172q179 0 272 68q94 69 151 247h125zM566 1930l57 110l340 -157l327 157l64 -110l-391 -266z" />
    <glyph glyph-name="ccaron" unicode="&#x10d;" horiz-adv-x="1191" 
d="M718 162q162 0 329 91l38 -81q-48 -54 -129 -98q-169 -91 -293.5 -91t-224 38.5t-172.5 110.5q-153 152 -153 407q0 310 185 497q171 173 429 173q141 0 282 -43l27 -8q13 -4 23 -6q8 -16 8 -72t-2.5 -87.5t-6 -60.5t-7.5 -52l-6 -36q-6 -10 -62 -10q-68 0 -89 9
q0 119 -29.5 162.5t-74 63.5t-117 20t-134.5 -30.5t-109 -90.5q-102 -132 -102 -358q0 -323 218 -416q73 -32 172 -32zM269 1636l77 105l320 -174l306 174l84 -105l-390 -302z" />
    <glyph glyph-name="Dcaron" unicode="&#x10e;" horiz-adv-x="1539" 
d="M707 -15l-334 14l-281 1l7 110q90 0 120 26q53 46 53 150v943q0 105 -21 136.5t-41 40.5t-50 9t-69 -12l10 127h252l365 15q776 0 776 -736q0 -373 -215 -598q-216 -226 -572 -226zM824 1416q-79 13 -162.5 13t-172.5 -20v-1201q0 -50 7.5 -62t22.5 -17.5t43 -8.5
q48 -5 170.5 -5t216.5 36.5t162 114.5q144 167 144 497q0 582 -431 653zM309 1930l57 110l340 -157l327 157l64 -110l-391 -266z" />
    <glyph glyph-name="dcaron" unicode="&#x10f;" horiz-adv-x="1535" 
d="M1272 1157q112 118 115 234q-97 13 -133 104q-11 28 -11 61t13 63t36 53q50 48 104.5 48t84.5 -14.5t51 -41.5q41 -53 41 -122.5t-12.5 -119.5t-32.5 -94.5t-44.5 -82t-47.5 -64.5q-50 -57 -74 -57q-54 0 -90 33zM544 1186q77 25 177.5 25t204.5 -28v20q0 236 -8 260.5
t-19.5 35.5t-30 19t-40.5 12q-28 4 -97 4h-19l15 114l416 58q0 -9 -1.5 -15t-4.5 -27.5t-6 -73.5q-8 -139 -8 -374v-912q0 -78 17.5 -110t49.5 -32q42 0 96 19l29 9q-2 -12 -3.5 -33.5t-3.5 -44.5t-3 -50l-314 -78q-11 5 -30.5 61t-26.5 82q-127 -90 -270 -127
q-50 -13 -121 -13t-155 36t-146 107q-132 151 -132 417q0 174 80 330q120 235 354 309zM618 170q55 2 107 13t95 25q88 29 108 49l-2 -1v727q-44 66 -168 93q-37 8 -95 8t-125.5 -26.5t-115.5 -86.5q-100 -125 -100 -392q0 -180 91 -299q87 -113 205 -110z" />
    <glyph glyph-name="Dcroat" unicode="&#x110;" horiz-adv-x="1539" 
d="M708 -13l-334 14l-281 1l7 110q90 0 120 26q53 46 53 150v436h-164l20 127h144v380q0 105 -21 136.5t-41 40.5t-50 9t-69 -12l10 127h252l365 15q776 0 776 -736q0 -373 -215 -598q-216 -226 -572 -226zM824 1418q-78 13 -161.5 13t-172.5 -20v-560h352l-20 -127h-332
v-514q0 -50 7.5 -62t22.5 -17.5t44 -8.5q47 -5 169.5 -5t216.5 36.5t162 114.5q144 167 144 497q0 582 -432 653z" />
    <glyph glyph-name="dcroat" unicode="&#x111;" horiz-adv-x="1362" 
d="M544 1184q76 25 176.5 25t204.5 -28v132h-265l20 127h240q-6 41 -20 54.5t-32.5 21.5t-40.5 12q-28 4 -97 4h-19l15 114l416 58q0 -9 -1 -14t-3 -18.5t-4 -41.5q-7 -68 -10 -190h199l-20 -127h-181v-1011q0 -78 17.5 -110t49.5 -32q42 0 96 19l29 9q-2 -12 -3.5 -33.5
t-3.5 -44.5t-3 -50l-314 -78q-11 5 -30.5 61t-26.5 82q-127 -90 -270 -127q-50 -13 -121 -13t-155 36t-145 107q-133 151 -133 417q0 174 80 330q120 235 355 309zM616 168q56 2 108 13t94 25q89 29 109 49l-2 -1v727q-44 66 -169 93q-36 8 -94 8t-125.5 -26.5t-115.5 -86.5
q-100 -125 -100 -392q0 -180 91 -299q87 -113 204 -110z" />
    <glyph glyph-name="Emacron" unicode="&#x112;" horiz-adv-x="1368" 
d="M955 600l-2 -32h-123q-7 113 -26 142q-34 51 -123 51h-201v-482q0 -97 37 -129q36 -31 155 -35h191q200 0 276 173q24 54 32 122h124q0 -114 -23 -240l-30 -170h-1155l17 110q100 0 131 44q28 38 28 153v914q0 193 -87 193q-36 0 -76 -9l12 125h776q241 0 361 16
q0 -160 -31 -320q-8 -38 -14 -58h-102q-10 162 -62 205q-29 24 -75.5 30t-116.5 6h-368v-535h207q100 0 131 43q20 27 32 126l122 1l1 -53q0 -127 -18 -391zM377 1970h750l-19 -156h-750z" />
    <glyph glyph-name="emacron" unicode="&#x113;" horiz-adv-x="1195" 
d="M674 156q198 13 349 95l44 -84q-151 -125 -344 -171q-58 -13 -106 -13q-377 0 -475 333q-32 107 -32 249.5t46.5 262.5t123 204.5t175.5 130.5t205 46q425 0 425 -486v-10q0 -127 -30 -127h-736q0 -209 92.5 -318t262.5 -112zM857 714q1 21 1 32v33q0 235 -130 289
q-47 20 -100.5 20t-90.5 -16t-69.5 -44t-59.5 -65.5t-47 -82.5q-42 -93 -42 -190zM226 1620h765l-20 -162h-765z" />
    <glyph glyph-name="Ebreve" unicode="&#x114;" horiz-adv-x="1368" 
d="M955 600l-2 -32h-123q-7 113 -26 142q-34 51 -123 51h-201v-482q0 -97 37 -129q36 -31 155 -35h191q200 0 276 173q24 54 32 122h124q0 -114 -23 -240l-30 -170h-1155l17 110q100 0 131 44q28 38 28 153v914q0 193 -87 193q-36 0 -76 -9l12 125h776q241 0 361 16
q0 -160 -31 -320q-8 -38 -14 -58h-102q-10 162 -62 205q-29 24 -75.5 30t-116.5 6h-368v-535h207q100 0 131 43q20 27 32 126l122 1l1 -53q0 -127 -18 -391zM739 1704q-248 0 -329 189q-26 61 -26 127l120 18q1 -2 6.5 -15.5t17 -32t29.5 -39.5t44 -39q59 -41 132 -41
q117 0 190 83q33 37 52 84l130 -18q0 -95 -72 -190q-96 -126 -294 -126z" />
    <glyph glyph-name="ebreve" unicode="&#x115;" horiz-adv-x="1195" 
d="M674 156q198 13 349 95l44 -84q-151 -125 -344 -171q-58 -13 -106 -13q-377 0 -475 333q-32 107 -32 249.5t46.5 262.5t123 204.5t175.5 130.5t205 46q425 0 425 -486v-10q0 -127 -30 -127h-736q0 -209 92.5 -318t262.5 -112zM857 714q1 21 1 32v33q0 235 -130 289
q-47 20 -100.5 20t-90.5 -16t-69.5 -44t-59.5 -65.5t-47 -82.5q-42 -93 -42 -190zM250 1696l110 14q37 -116 156 -156q38 -12 80 -12t69.5 7t50.5 19q86 45 125 144l130 -16q0 -97 -72 -192q-98 -129 -294 -129q-249 0 -329 193q-26 62 -26 128z" />
    <glyph glyph-name="Edotaccent" unicode="&#x116;" horiz-adv-x="1368" 
d="M955 600l-2 -32h-123q-7 113 -26 142q-34 51 -123 51h-201v-482q0 -97 37 -129q36 -31 155 -35h191q200 0 276 173q24 54 32 122h124q0 -114 -23 -240l-30 -170h-1155l17 110q100 0 131 44q28 38 28 153v914q0 193 -87 193q-36 0 -76 -9l12 125h776q241 0 361 16
q0 -160 -31 -320q-8 -38 -14 -58h-102q-10 162 -62 205q-29 24 -75.5 30t-116.5 6h-368v-535h207q100 0 131 43q20 27 32 126l122 1l1 -53q0 -127 -18 -391zM585 1864q0 49 12.5 78t34.5 50q47 45 115 45q65 0 109 -45q44 -46 44 -113q0 -64 -44 -107q-45 -43 -94 -43
q-83 0 -130 43t-47 92z" />
    <glyph glyph-name="edotaccent" unicode="&#x117;" horiz-adv-x="1195" 
d="M674 156q198 13 349 95l44 -84q-151 -125 -344 -171q-58 -13 -106 -13q-377 0 -475 333q-32 107 -32 249.5t46.5 262.5t123 204.5t175.5 130.5t205 46q425 0 425 -486v-10q0 -127 -30 -127h-736q0 -209 92.5 -318t262.5 -112zM857 714q1 21 1 32v33q0 235 -130 289
q-47 20 -100.5 20t-90.5 -16t-69.5 -44t-59.5 -65.5t-47 -82.5q-42 -93 -42 -190zM495 1438q-45 43 -45 92t12 78t33 50q45 45 111 45q63 0 106 -45t43 -113q0 -64 -43 -107t-91 -43q-81 0 -126 43z" />
    <glyph glyph-name="Eogonek" unicode="&#x118;" horiz-adv-x="1368" 
d="M1228 -441q-83 -68 -217 -68q-103 0 -177 59q-79 62 -79 164q0 100 86 191q58 61 129 95l11 2h-893l17 110q100 0 131 44q28 38 28 153v914q0 193 -87 193q-35 0 -76 -9l12 125h776q241 0 361 16q0 -160 -32 -320q-7 -38 -13 -58h-102q-10 162 -62 205q-29 24 -75.5 30
t-116.5 6h-368v-535h207q100 0 132 43q19 27 31 126l122 1l1 -53q0 -127 -18 -391l-2 -32h-123q-7 113 -26 142q-34 51 -123 51h-201v-482q0 -97 37 -129q36 -31 155 -35h191q200 0 276 173q24 54 32 122h124q0 -114 -22 -240l-31 -170h-43q4 -1 8 -1h6q3 0 5 -1
q-76 -9 -161 -64q-109 -71 -109 -180q0 -94 97 -122q28 -8 74 -8t108 28v-95z" />
    <glyph glyph-name="eogonek" unicode="&#x119;" horiz-adv-x="1195" 
d="M723 -2q-63 -13 -105 -13q-377 0 -476 333q-31 107 -31 249.5t46.5 262.5t123 204.5t175.5 130.5t205 46q425 0 425 -486v-10q0 -127 -30 -127h-736q0 -209 92.5 -318t262.5 -112q198 13 349 95l44 -84q-16 -14 -34 -27l-35 -24q-254 -224 -254 -371q0 -124 131 -124
q69 0 132 21l12 1v-90q-104 -63 -232 -63q-97 0 -168 55q-79 61 -79 157q0 154 182 294zM858 716q1 21 1 32v33q0 235 -131 289q-46 20 -99.5 20t-90.5 -16t-69.5 -44t-59.5 -65.5t-47 -82.5q-42 -93 -42 -190z" />
    <glyph glyph-name="Ecaron" unicode="&#x11a;" horiz-adv-x="1368" 
d="M955 600l-2 -32h-123q-7 113 -26 142q-34 51 -123 51h-201v-482q0 -97 37 -129q36 -31 155 -35h191q200 0 276 173q24 54 32 122h124q0 -114 -23 -240l-30 -170h-1155l17 110q100 0 131 44q28 38 28 153v914q0 193 -87 193q-36 0 -76 -9l12 125h776q241 0 361 16
q0 -160 -31 -320q-8 -38 -14 -58h-102q-10 162 -62 205q-29 24 -75.5 30t-116.5 6h-368v-535h207q100 0 131 43q20 27 32 126l122 1l1 -53q0 -127 -18 -391zM343 1930l57 110l340 -157l327 157l64 -110l-391 -266z" />
    <glyph glyph-name="ecaron" unicode="&#x11b;" horiz-adv-x="1195" 
d="M674 156q198 13 349 95l44 -84q-151 -125 -344 -171q-58 -13 -106 -13q-377 0 -475 333q-32 107 -32 249.5t46.5 262.5t123 204.5t175.5 130.5t205 46q425 0 425 -486v-10q0 -127 -30 -127h-736q0 -209 92.5 -318t262.5 -112zM857 714q1 21 1 32v33q0 235 -130 289
q-47 20 -100.5 20t-90.5 -16t-69.5 -44t-59.5 -65.5t-47 -82.5q-42 -93 -42 -190zM211 1636l77 105l320 -174l306 174l84 -105l-390 -302z" />
    <glyph glyph-name="Gcircumflex" unicode="&#x11c;" horiz-adv-x="1709" 
d="M1501 97q-198 -113 -563 -113q-411 0 -623 208q-203 199 -203 555q0 325 202 549q142 156 374 218q119 31 237 31q138 0 263 -15q196 -25 257 -25l36 1q0 -191 -28 -403h-139q-12 194 -88 265q-75 71 -251 71t-292.5 -53.5t-189.5 -143.5q-139 -171 -139 -460
q0 -476 338 -624q122 -53 271 -53q240 0 308 88v308q0 144 -111 155q-30 3 -74 3t-83 -7l10 135h608l-14 -126q-47 -1 -74 -9.5t-41 -37.5q-21 -45 -21 -230q0 -214 30 -287zM492 1767l396 273l391 -265l-64 -111l-327 157l-339 -157z" />
    <glyph glyph-name="gcircumflex" unicode="&#x11d;" horiz-adv-x="1195" 
d="M468 386q-63 -50 -63 -85.5t13.5 -53t41.5 -28.5q36 -14 178 -30l96 -12q200 -25 286 -79q109 -69 109 -204q0 -184 -147 -299q-146 -113 -382 -113q-353 0 -464 162q-35 52 -35 109t16.5 101.5t46.5 82.5q63 79 166 121q-118 53 -118 139q0 89 89 179q24 25 47 39
q-184 68 -224 259q-12 54 -12 121t39.5 144.5t110.5 137.5q158 132 395 132q110 0 204 -44l314 45v-170l-164 -3q61 -90 61 -206t-45.5 -196t-118.5 -135q-150 -116 -342 -116h-58.5t-39.5 2zM608 504q61 0 108.5 17.5t82.5 52.5q74 72 74 201q0 135 -73 217q-77 87 -210 87
q-121 0 -186 -50q-89 -67 -89 -232q0 -117 84 -203q88 -90 209 -90zM439 27q-127 -74 -127 -218q0 -93 90 -147q86 -51 200.5 -51t178.5 15t105 42q79 51 79 144q0 98 -103 138q-72 29 -321 63zM195 1448l405 301l398 -302l-86 -106l-312 175l-326 -175z" />
    <glyph glyph-name="Gbreve" unicode="&#x11e;" horiz-adv-x="1709" 
d="M1501 97q-198 -113 -563 -113q-411 0 -623 208q-203 199 -203 555q0 325 202 549q142 156 374 218q119 31 237 31q138 0 263 -15q196 -25 257 -25l36 1q0 -191 -28 -403h-139q-12 194 -88 265q-75 71 -251 71t-292.5 -53.5t-189.5 -143.5q-139 -171 -139 -460
q0 -476 338 -624q122 -53 271 -53q240 0 308 88v308q0 144 -111 155q-30 3 -74 3t-83 -7l10 135h608l-14 -126q-47 -1 -74 -9.5t-41 -37.5q-21 -45 -21 -230q0 -214 30 -287zM888 1704q-248 0 -329 189q-26 61 -26 127l120 18q1 -2 6.5 -15.5t17 -32t29.5 -39.5t44 -39
q59 -41 132 -41q117 0 190 83q33 37 52 84l130 -18q0 -95 -72 -190q-96 -126 -294 -126z" />
    <glyph glyph-name="gbreve" unicode="&#x11f;" horiz-adv-x="1195" 
d="M468 386q-63 -50 -63 -85.5t13.5 -53t41.5 -28.5q36 -14 178 -30l96 -12q200 -25 286 -79q109 -69 109 -204q0 -184 -147 -299q-146 -113 -382 -113q-353 0 -464 162q-35 52 -35 109t16.5 101.5t46.5 82.5q63 79 166 121q-118 53 -118 139q0 89 89 179q24 25 47 39
q-184 68 -224 259q-12 54 -12 121t39.5 144.5t110.5 137.5q158 132 395 132q110 0 204 -44l314 45v-170l-164 -3q61 -90 61 -206t-45.5 -196t-118.5 -135q-150 -116 -342 -116h-58.5t-39.5 2zM608 504q61 0 108.5 17.5t82.5 52.5q74 72 74 201q0 135 -73 217q-77 87 -210 87
q-121 0 -186 -50q-89 -67 -89 -232q0 -117 84 -203q88 -90 209 -90zM439 27q-127 -74 -127 -218q0 -93 90 -147q86 -51 200.5 -51t178.5 15t105 42q79 51 79 144q0 98 -103 138q-72 29 -321 63zM245 1696l110 14q37 -116 156 -156q38 -12 80 -12t69.5 7t50.5 19
q86 45 125 144l130 -16q0 -97 -72 -192q-98 -129 -294 -129q-249 0 -329 193q-26 62 -26 128z" />
    <glyph glyph-name="Gdotaccent" unicode="&#x120;" horiz-adv-x="1709" 
d="M1501 97q-198 -113 -563 -113q-411 0 -623 208q-203 199 -203 555q0 325 202 549q142 156 374 218q119 31 237 31q138 0 263 -15q196 -25 257 -25l36 1q0 -191 -28 -403h-139q-12 194 -88 265q-75 71 -251 71t-292.5 -53.5t-189.5 -143.5q-139 -171 -139 -460
q0 -476 338 -624q122 -53 271 -53q240 0 308 88v308q0 144 -111 155q-30 3 -74 3t-83 -7l10 135h608l-14 -126q-47 -1 -74 -9.5t-41 -37.5q-21 -45 -21 -230q0 -214 30 -287zM734 1864q0 49 12.5 78t34.5 50q47 45 115 45q65 0 109 -45q44 -46 44 -113q0 -64 -44 -107
q-45 -43 -94 -43q-83 0 -130 43t-47 92z" />
    <glyph glyph-name="gdotaccent" unicode="&#x121;" horiz-adv-x="1195" 
d="M468 386q-63 -50 -63 -85.5t13.5 -53t41.5 -28.5q36 -14 178 -30l96 -12q200 -25 286 -79q109 -69 109 -204q0 -184 -147 -299q-146 -113 -382 -113q-353 0 -464 162q-35 52 -35 109t16.5 101.5t46.5 82.5q63 79 166 121q-118 53 -118 139q0 89 89 179q24 25 47 39
q-184 68 -224 259q-12 54 -12 121t39.5 144.5t110.5 137.5q158 132 395 132q110 0 204 -44l314 45v-170l-164 -3q61 -90 61 -206t-45.5 -196t-118.5 -135q-150 -116 -342 -116h-58.5t-39.5 2zM608 504q61 0 108.5 17.5t82.5 52.5q74 72 74 201q0 135 -73 217q-77 87 -210 87
q-121 0 -186 -50q-89 -67 -89 -232q0 -117 84 -203q88 -90 209 -90zM439 27q-127 -74 -127 -218q0 -93 90 -147q86 -51 200.5 -51t178.5 15t105 42q79 51 79 144q0 98 -103 138q-72 29 -321 63zM518 1438q-45 43 -45 92t12 78t33 50q45 45 111 45q63 0 106 -45t43 -113
q0 -64 -43 -107t-91 -43q-81 0 -126 43z" />
    <glyph glyph-name="Gcommaaccent" unicode="&#x122;" horiz-adv-x="1709" 
d="M1501 97q-198 -113 -563 -113q-411 0 -623 208q-203 199 -203 555q0 325 202 549q142 156 374 218q119 31 237 31q138 0 263 -15q196 -25 257 -25l36 1q0 -191 -28 -403h-139q-12 194 -88 265q-75 71 -251 71t-292.5 -53.5t-189.5 -143.5q-139 -171 -139 -460
q0 -476 338 -624q122 -53 271 -53q240 0 308 88v308q0 144 -111 155q-30 3 -74 3t-83 -7l10 135h608l-14 -126q-47 -1 -74 -9.5t-41 -37.5q-21 -45 -21 -230q0 -214 30 -287zM908 -59q157 0 157 -155q0 -118 -69 -218q-28 -40 -57 -63t-47 -23q-31 0 -46 15.5t-19 27.5
q55 53 53 136q-121 12 -121 135q0 60 40 102q41 43 109 43z" />
    <glyph glyph-name="gcommaaccent" unicode="&#x123;" horiz-adv-x="1195" 
d="M468 386q-63 -50 -63 -85.5t13.5 -53t41.5 -28.5q36 -14 178 -30l96 -12q200 -25 286 -79q109 -69 109 -204q0 -184 -147 -299q-146 -113 -382 -113q-353 0 -464 162q-35 52 -35 109t16.5 101.5t46.5 82.5q63 79 166 121q-118 53 -118 139q0 89 89 179q24 25 47 39
q-184 68 -224 259q-12 54 -12 121t39.5 144.5t110.5 137.5q158 132 395 132q110 0 204 -44l314 45v-170l-164 -3q61 -90 61 -206t-45.5 -196t-118.5 -135q-150 -116 -342 -116h-58.5t-39.5 2zM608 504q61 0 108.5 17.5t82.5 52.5q74 72 74 201q0 135 -73 217q-77 87 -210 87
q-121 0 -186 -50q-89 -67 -89 -232q0 -117 84 -203q88 -90 209 -90zM439 27q-127 -74 -127 -218q0 -93 90 -147q86 -51 200.5 -51t178.5 15t105 42q79 51 79 144q0 98 -103 138q-72 29 -321 63zM577 1394q-157 0 -157 155q0 118 69 218q28 40 57 63t47 23q31 0 46 -15.5
t19 -27.5q-55 -53 -53 -136q121 -12 121 -135q0 -60 -40 -102q-41 -43 -109 -43z" />
    <glyph glyph-name="Hcircumflex" unicode="&#x124;" horiz-adv-x="1706" 
d="M1485 117q16 -7 40 -7t80 14l-12 -124h-551l18 110q97 0 132 52q29 45 29 165v399h-738v-457q0 -107 9.5 -128.5t22 -26t39.5 -4.5q50 0 114 16l-15 -126h-563l17 110q100 0 131 44q28 38 28 153v914q0 193 -85 193q-36 0 -78 -9l12 125h533l-15 -116q-46 0 -75 -5
t-46 -25q-29 -36 -29 -176v-356h738v362q0 126 -13.5 156t-29.5 37t-46 7q-47 0 -100 -12l19 128h556l-14 -116q-88 0 -119 -37q-37 -43 -37 -164v-955q0 -120 48 -141zM470 1767l396 273l391 -265l-64 -111l-327 157l-339 -157z" />
    <glyph glyph-name="hcircumflex" unicode="&#x125;" 
d="M762 1028q-170 0 -347 -123v-697q0 -61 15 -78q22 -24 49 -24q74 0 116 11l-16 -117h-521l16 106q93 0 120 56q21 45 21 195v939q0 102 -27 135q-31 31 -139 31h-25l12 115l401 59q-22 -88 -22 -441v-166q213 180 426 180q222 0 295 -199q24 -67 24 -146q0 -110 -7 -228
q-15 -253 -15 -301v-67l1 -69q0 -83 39 -91q13 -2 28 -2q36 0 91 11l-12 -117h-513l14 106q117 0 143 84q25 89 27.5 224t2.5 203.5t-1.5 110t-7 83t-18 81t-34.5 69.5q-48 67 -136 67zM283 1769l396 273l391 -265l-64 -111l-327 157l-339 -157z" />
    <glyph glyph-name="Hbar" unicode="&#x126;" horiz-adv-x="1706" 
d="M1486 119q16 -7 40 -7t80 14l-12 -124h-551l18 110q97 0 131 52q30 45 30 165v399h-738v-457q0 -107 9.5 -128.5t22 -26t40.5 -4.5q49 0 113 16l-15 -126h-563l17 110q100 0 131 44q28 38 28 153v767h-231l30 108h201v39q0 193 -85 193q-36 0 -78 -9l12 125h533l-15 -116
q-46 0 -75 -5t-45 -25q-30 -36 -30 -176v-26h738v32q0 126 -13.5 156t-29.5 37t-46 7q-47 0 -100 -12l19 128h556l-14 -116q-88 0 -120 -37q-36 -43 -36 -164v-31h219l-30 -108h-189v-816q0 -120 48 -141zM1222 854v222h-738v-222h738z" />
    <glyph glyph-name="hbar" unicode="&#x127;" 
d="M416 1031q213 180 426 180q222 0 294 -199q25 -67 25 -152t-3 -165t-7 -161q-17 -343 -9 -372.5t16 -39.5q24 -26 140 -3l-12 -117h-513l14 106q117 0 143 84q25 89 27.5 224t2.5 203.5t-1.5 110t-7 83t-18 81t-33.5 69.5q-49 67 -137 67q-143 0 -285 -86l-62 -37v-697
q0 -61 15 -78q22 -24 49 -24q74 0 116 11l-16 -117h-521l16 106q93 0 120 56q21 45 21 195v884h-184l19 135h165q-2 92 -27 125q-31 31 -139 31h-25l12 114l401 59q-17 -70 -21 -329h198l-19 -135h-180v-212z" />
    <glyph glyph-name="Itilde" unicode="&#x128;" horiz-adv-x="853" 
d="M586.5 118.5q22.5 -8.5 50 -8.5t102.5 15l-12 -125h-613l11 110q98 0 142 46q51 55 51 185l-1 873q0 170 -51 193q-16 7 -37 7q-59 0 -107 -9l16 125h585l-16 -116q-113 0 -144 -38q-29 -34 -29 -155v-950q0 -96 15 -120t37.5 -32.5zM11 1782q3 13 23.5 44t57.5 63
q92 81 199 81q54 0 97.5 -22t77.5 -44q85 -57 114 -57t48 6t36 19q31 23 75 77l89 -97q-11 -47 -57 -93q-96 -96 -204 -96q-45 0 -90 22t-83 45q-99 57 -127 57t-46.5 -6t-36.5 -19q-28 -20 -74 -77z" />
    <glyph glyph-name="itilde" unicode="&#x129;" horiz-adv-x="683" 
d="M509 1210q-45 -130 -45 -512l7 -466q0 -61 19 -93.5t76 -32.5q46 0 82 12l-14 -118h-537l18 106q98 0 133 54q29 46 29 153v523q0 125 -44 162q-35 30 -154 30l16 126zM-54 1504q3 13 22 44t53 63q88 81 195 81q54 0 97.5 -22t77.5 -44q85 -57 114 -57t48 6t36 19
q31 23 75 77l89 -97q-11 -47 -57 -93q-96 -96 -204 -96q-45 0 -90 22t-83 45q-99 57 -127 57t-46.5 -6.5t-36.5 -18.5q-28 -20 -75 -78z" />
    <glyph glyph-name="Imacron" unicode="&#x12a;" horiz-adv-x="853" 
d="M107 1972h652l-19 -157h-652zM587.5 120.5q22.5 -8.5 50 -8.5t102.5 15l-12 -125h-613l11 110q98 0 142 46q51 55 51 185l-1 873q0 170 -52 193q-15 7 -36 7q-59 0 -107 -9l16 125h585l-16 -116q-113 0 -144 -38q-29 -34 -29 -155v-950q0 -96 15 -120t37.5 -32.5z" />
    <glyph glyph-name="imacron" unicode="&#x12b;" horiz-adv-x="683" 
d="M36 1620h685l-20 -162h-685zM525 1212q-45 -130 -45 -512l7 -466q0 -61 19 -93.5t76 -32.5q46 0 82 12l-14 -118h-537l18 106q98 0 133 54q29 46 29 153v523q0 125 -44 162q-35 30 -154 30l16 126z" />
    <glyph glyph-name="Ibreve" unicode="&#x12c;" horiz-adv-x="853" 
d="M586.5 118.5q22.5 -8.5 50 -8.5t102.5 15l-12 -125h-613l11 110q98 0 142 46q51 55 51 185l-1 873q0 170 -51 193q-16 7 -37 7q-59 0 -107 -9l16 125h585l-16 -116q-113 0 -144 -38q-29 -34 -29 -155v-950q0 -96 15 -120t37.5 -32.5zM423 1704q-248 0 -329 189
q-26 61 -26 127l120 18q1 -2 6.5 -15.5t17 -32t29.5 -39.5t44 -39q59 -41 132 -41q117 0 190 83q33 37 52 84l130 -18q0 -95 -72 -190q-96 -126 -294 -126z" />
    <glyph glyph-name="ibreve" unicode="&#x12d;" horiz-adv-x="683" 
d="M509 1210q-45 -130 -45 -512l7 -466q0 -61 19 -93.5t76 -32.5q46 0 82 12l-14 -118h-537l18 106q98 0 133 54q29 46 29 153v523q0 125 -44 162q-35 30 -154 30l16 126zM-7 1696l110 14q37 -116 156 -156q38 -12 80 -12t69.5 7t50.5 19q86 45 125 144l130 -16
q0 -97 -72 -192q-98 -129 -294 -129q-249 0 -329 193q-26 62 -26 128z" />
    <glyph glyph-name="Iogonek" unicode="&#x12e;" horiz-adv-x="853" 
d="M125 -286q0 163 181 288h-191l11 110q98 0 142 46q51 55 51 185l-1 873q0 170 -52 193q-15 7 -36 7q-59 0 -107 -9l16 125h585l-16 -116q-113 0 -144 -38q-29 -34 -29 -155v-950q0 -96 15 -120q26 -41 98 -41q17 0 92 15l-12 -125h-190q4 -1 8 -1h6q3 0 5 -1
q-73 -9 -128 -51.5t-82 -87t-27 -91.5t13 -71.5t35 -40.5q44 -32 106 -32t124 28v-95q-38 -31 -97.5 -49.5t-114 -18.5t-100.5 15t-82 44q-79 62 -79 164z" />
    <glyph glyph-name="iogonek" unicode="&#x12f;" horiz-adv-x="683" 
d="M434 1408q-28 -11 -61 -11t-62 11.5t-51 31.5q-45 42 -45 91.5t12 78.5t33 50q47 45 114 45q65 0 108 -45q44 -45 44 -113q0 -101 -92 -139zM99 -286q0 163 181 288h-182l18 106q98 0 133 54q29 46 29 153v523q0 125 -44 162q-35 30 -154 30l16 126l414 56
q-45 -130 -45 -512l7 -466q0 -61 19 -93.5t76 -32.5q46 0 82 12l-14 -118h-123q4 -1 8 -1h6q3 0 5 -1q-73 -9 -128 -51.5t-82 -87t-27 -91.5t13 -71.5t35 -40.5q42 -32 105 -32t125 28v-95q-85 -67 -217 -67q-104 0 -177 58q-79 62 -79 164z" />
    <glyph glyph-name="Idotaccent" unicode="&#x130;" horiz-adv-x="853" 
d="M586.5 118.5q22.5 -8.5 50 -8.5t102.5 15l-12 -125h-613l11 110q98 0 142 46q51 55 51 185l-1 873q0 170 -51 193q-16 7 -37 7q-59 0 -107 -9l16 125h585l-16 -116q-113 0 -144 -38q-29 -34 -29 -155v-950q0 -96 15 -120t37.5 -32.5zM268 1864q0 49 12.5 78t34.5 50
q47 45 115 45q65 0 109 -45q44 -46 44 -113q0 -64 -44 -107q-45 -43 -94 -43q-83 0 -130 43t-47 92z" />
    <glyph glyph-name="dotlessi" unicode="&#x131;" horiz-adv-x="683" 
d="M509 1210q-45 -130 -45 -512l7 -466q0 -61 19 -93.5t76 -32.5q46 0 82 12l-14 -118h-537l18 106q98 0 133 54q29 46 29 153v523q0 125 -44 162q-35 30 -154 30l16 126z" />
    <glyph glyph-name="IJ" unicode="&#x132;" horiz-adv-x="1708" 
d="M586.5 118.5q22.5 -8.5 50 -8.5t102.5 15l-12 -125h-613l11 110q98 0 142 46q51 55 51 185l-1 873q0 170 -51 193q-16 7 -37 7q-59 0 -107 -9l16 125h585l-16 -116q-113 0 -144 -38q-29 -34 -29 -155v-950q0 -96 15 -120t37.5 -32.5zM927 -310q138 147 206 376
q49 167 49 330v781q0 146 -14.5 183t-31 45.5t-46.5 8.5q-80 0 -116 -8q1 -1 1 -3l-12 1l18 126h621l-15 -116q-109 0 -139 -24.5t-40 -59t-10 -90.5v-908q0 -144 -20 -218.5t-47 -129.5t-71 -114q-86 -113 -258 -256l-75 74v2z" />
    <glyph glyph-name="ij" unicode="&#x133;" horiz-adv-x="1366" 
d="M433 1406q-28 -11 -61 -11t-62 11.5t-50 31.5q-46 42 -46 91.5t12 78.5t34 50q46 45 113 45q65 0 109 -45q43 -45 43 -113q0 -101 -92 -139zM509 1210q-45 -130 -45 -512l7 -466q0 -61 19 -93.5t76 -32.5q46 0 82 12l-14 -118h-537l18 106q98 0 133 54q29 46 29 153v523
q0 125 -44 162q-35 30 -154 30l16 126zM1129 1406q-28 -11 -61 -11t-62 11.5t-51 31.5q-45 42 -45 91.5t12 78.5t33 50q47 45 114 45q65 0 108 -45q44 -45 44 -113q0 -101 -92 -139zM1164 698l11 -595q2 -249 -132 -421q-98 -125 -259 -202l-71 61q218 179 250 499
q9 97 9 158v287l-1 357q0 104 -49 146q-46 40 -159 40l16 126l423 56q-38 -97 -38 -512z" />
    <glyph glyph-name="Jcircumflex" unicode="&#x134;" horiz-adv-x="855" 
d="M74 -310q138 147 206 376q49 167 49 330v781q0 146 -14.5 183t-31 45.5t-46.5 8.5q-80 0 -116 -8q1 -1 1 -3l-12 1l18 126h621l-15 -116q-109 0 -139 -24.5t-40 -59t-10 -90.5v-908q0 -144 -20 -218.5t-47 -129.5t-71 -114q-86 -113 -258 -256l-75 74v2zM47 1767l396 273
l391 -265l-64 -111l-327 157l-339 -157z" />
    <glyph glyph-name="jcircumflex" unicode="&#x135;" horiz-adv-x="683" 
d="M519 1210q-38 -97 -38 -512q0 -227 3 -303t4 -115q4 -93 4.5 -204.5t-37 -215t-95.5 -178.5q-98 -125 -259 -202l-71 61q218 179 248 499q10 108 10 226l-1 274v302q0 105 -48 146q-46 40 -159 40l16 126zM-51 1448l405 301l398 -302l-86 -106l-312 175l-326 -175z" />
    <glyph glyph-name="Kcommaaccent" unicode="&#x136;" horiz-adv-x="1536" 
d="M1435 1412q-14 4 -19.5 4t-29.5 -1t-46.5 -8.5t-53.5 -28.5q-71 -51 -163 -157l-360 -415q147 -104 345 -346q53 -66 90.5 -119.5t70.5 -96t63 -72.5q60 -60 102.5 -60t75.5 9l-4 -121h-235q-110 0 -201 115q-31 39 -58 85q-81 132 -119 188l-75 108q-128 176 -212 241
h-93v-437q0 -100 13 -132q25 -58 88 -58q41 0 102 14l-13 -124h-572l12 110q97 0 125 40t28 181v891q0 108 -12.5 139.5t-28.5 42t-32.5 10.5t-28.5 -0.5t-26 -1.5l-26 -2q-13 -1 -23 -2l18 122h541l-15 -116q-86 0 -111 -26q-39 -43 -39 -156v-380h69q34 0 55 17l283 325
q41 48 50 63q19 31 33 49q39 46 39 65q0 50 -54 50q-49 0 -91 -9l17 118h539zM831 -59q157 0 157 -155q0 -118 -69 -218q-28 -40 -57 -63t-47 -23q-31 0 -46 15.5t-19 27.5q55 53 53 136q-121 12 -121 135q0 60 40 102q41 43 109 43z" />
    <glyph glyph-name="kcommaaccent" unicode="&#x137;" horiz-adv-x="1193" 
d="M970 236q123 -130 188 -130q37 0 67 14l-10 -120h-207q-133 0 -332 241q-100 125 -141 182l-69 95q-28 37 -51 63v-345q0 -85 11.5 -103.5t25 -22.5t30.5 -4q49 0 79 14l-15 -120h-489l16 106q89 0 117 46q27 41 27 161v1052q0 103 -24 131t-67 32t-100 4l12 114l401 59
q-24 -105 -24 -510v-527q225 187 282 244q95 97 95 122q0 27 -18 33q-31 12 -112 12l12 111h523l-10 -111h-30q-78 0 -186 -101q-141 -115 -210 -176q-136 -121 -170 -154q1 -2 17 -21q205 -231 261 -289zM697 -59q157 0 157 -155q0 -118 -69 -218q-28 -40 -57 -63t-47 -23
q-31 0 -46 15.5t-19 27.5q55 53 53 136q-121 12 -121 135q0 60 40 102q41 43 109 43z" />
    <glyph glyph-name="kgreenlandic" unicode="&#x138;" horiz-adv-x="1191" 
d="M1158 1190q-2 -51 -11 -111h-28q-53 -3 -115 -47l-34 -25q-33 -24 -72 -57q-99 -87 -142 -128q-92 -88 -111 -109l-21 -21l290 -390l54 -69q110 -124 197 -124q13 0 45 4l-14 -113h-300q-49 0 -209 229l-201 295l-46 62q-20 26 -33 37l1 -385q0 -91 10 -108.5t23 -20.5
t31 -3q32 0 82 12l-13 -118h-502l17 106q83 0 116 42q32 41 34 153v528q0 120 -29 159q-29 40 -134 40l16 126l357 56q-10 -83 -10 -186l1 -383q203 189 260 254q99 113 99 139q0 44 -93 44q-4 0 -10.5 0.5t-8.5 0.5l13 111h491z" />
    <glyph glyph-name="Lacute" unicode="&#x139;" horiz-adv-x="1367" 
d="M1273 447q5 -55 5 -114q0 -83 -18 -181q-24 -126 -26 -152h-1172l12 115q96 -2 134 39q45 47 45 177l-1 917q0 108 -14 132t-29.5 29t-43 5t-47.5 -4q-24 -6 -32 -6l16 126h600l-14 -117q-129 0 -161 -20t-43.5 -52t-11.5 -87l1 -31v-943q0 -148 98 -165q29 -5 62 -5h165
q275 0 328 211q16 61 23 126h124zM394 1781l563 260l72 -193l-596 -185z" />
    <glyph glyph-name="lacute" unicode="&#x13a;" horiz-adv-x="683" 
d="M475 1636q-21 -110 -21 -439v-72l2 -887q0 -82 12 -102q19 -30 67 -30q67 0 117 11l-16 -117h-579l17 106q104 0 133.5 23t38 47.5t8.5 60.5v1059q0 103 -28 135q-26 31 -149 31h-25l12 115zM37 1783l563 260l72 -193l-596 -185z" />
    <glyph glyph-name="Lcommaaccent" unicode="&#x13b;" horiz-adv-x="1367" 
d="M1273 447q5 -55 5 -114q0 -83 -18 -181q-24 -126 -26 -152h-1172l12 115q96 -2 134 39q45 47 45 177l-1 917q0 108 -14 132t-29.5 29t-43 5t-47.5 -4q-24 -6 -32 -6l16 126h600l-14 -117q-129 0 -161 -20t-43.5 -52t-11.5 -87l1 -31v-943q0 -148 98 -165q29 -5 62 -5h165
q275 0 328 211q16 61 23 126h124zM638 -59q157 0 157 -155q0 -118 -69 -218q-28 -40 -57 -63t-47 -23q-31 0 -46 15.5t-19 27.5q55 53 53 136q-121 12 -121 135q0 60 40 102q41 43 109 43z" />
    <glyph glyph-name="lcommaaccent" unicode="&#x13c;" horiz-adv-x="683" 
d="M475 1705q-21 -109 -21 -438v-72l2 -957q0 -82 12 -102q19 -30 67 -30q67 0 117 11l-16 -117h-579l17 106q104 0 133.5 23t38 47.5t8.5 60.5v1128q0 85 -10.5 106t-19 31.5t-26 17t-40.5 8.5q-32 4 -106 4l12 114zM341 -59q157 0 157 -155q0 -118 -69 -218
q-28 -40 -57 -63t-47 -23q-31 0 -46 15.5t-19 27.5q55 53 53 136q-121 12 -121 135q0 60 40 102q41 43 109 43z" />
    <glyph glyph-name="Lcaron" unicode="&#x13d;" horiz-adv-x="1367" 
d="M884 1157q111 117 114 234q-61 8 -102 54q-41 47 -41 95.5t13 78.5t36 53q50 48 104 48t84.5 -14.5t51.5 -41.5q41 -53 41 -122.5t-12.5 -119.5t-32.5 -94.5t-44.5 -82t-48.5 -64.5q-51 -57 -74 -57q-53 0 -89 33zM1274 449q5 -55 5 -114q0 -83 -19 -181
q-23 -126 -25 -152h-1172l12 115q96 -2 135 39q44 47 44 177l-1 917q0 108 -14 132t-29.5 29t-43 5t-47.5 -4q-24 -6 -32 -6l16 126h600l-14 -117q-129 0 -161 -20t-43.5 -52t-11.5 -87l1 -31v-943q0 -148 98 -165q29 -5 62 -5h165q275 0 329 211q15 61 22 126h124z" />
    <glyph glyph-name="lcaron" unicode="&#x13e;" horiz-adv-x="855" 
d="M602 1157q111 117 114 234q-61 8 -102 54q-41 47 -41 95.5t13 78.5t36 53q50 48 104 48t84.5 -14.5t51.5 -41.5q41 -53 41 -122.5t-12.5 -119.5t-32.5 -94.5t-44.5 -82t-48.5 -64.5q-51 -57 -74 -57q-53 0 -89 33zM476 1707q-21 -109 -21 -438v-72l2 -957q0 -82 13 -102
q18 -30 66 -30q68 0 117 11l-16 -117h-579l17 106q104 0 133.5 23t38 47.5t8.5 60.5v1128q0 85 -10.5 106t-19 31.5t-26 17t-40.5 8.5q-32 4 -106 4l12 114z" />
    <glyph glyph-name="Ldot" unicode="&#x13f;" horiz-adv-x="1367" 
d="M1273 447q5 -55 5 -114q0 -83 -18 -181q-24 -126 -26 -152h-1172l12 115q96 -2 134 39q45 47 45 177l-1 917q0 108 -14 132t-29.5 29t-43 5t-47.5 -4q-24 -6 -32 -6l16 126h600l-14 -117q-129 0 -161 -20t-43.5 -52t-11.5 -87l1 -31v-943q0 -148 98 -165q29 -5 62 -5h165
q275 0 328 211q16 61 23 126h124zM1111 767q-34 0 -64.5 13.5t-53.5 35.5q-51 49 -51 118q0 70 51 119q50 49 118 49q70 0 120 -49q51 -49 51 -119q0 -69 -51 -118t-120 -49z" />
    <glyph glyph-name="ldot" unicode="&#x140;" horiz-adv-x="1026" 
d="M475 1705q-21 -109 -21 -438v-72l2 -957q0 -82 12 -102q19 -30 67 -30q67 0 117 11l-16 -117h-579l17 106q104 0 133.5 23t38 47.5t8.5 60.5v1128q0 85 -10.5 106t-19 31.5t-26 17t-40.5 8.5q-32 4 -106 4l12 114zM859 635q-34 0 -64.5 13.5t-53.5 35.5q-51 49 -51 118
q0 70 51 119q50 49 118 49q70 0 120 -49q51 -49 51 -119q0 -69 -51 -118t-120 -49z" />
    <glyph glyph-name="Lslash" unicode="&#x141;" horiz-adv-x="1367" 
d="M1274 449q5 -55 5 -114q0 -83 -19 -181q-23 -126 -25 -152h-1172l12 115q96 -2 135 39q44 47 44 177l-1 300l-197 -76l-38 143l235 90v460q0 108 -14 132t-29.5 29t-43 5t-47.5 -4q-24 -6 -32 -6l16 126h600l-14 -117q-129 0 -161 -20t-43.5 -52t-11.5 -87l1 -31v-350
l358 138l38 -142l-396 -153v-436q0 -148 98 -165q29 -5 62 -5h165q275 0 329 211q15 61 22 126h124z" />
    <glyph glyph-name="lslash" unicode="&#x142;" horiz-adv-x="683" 
d="M476 1707q-21 -109 -21 -438v-284l196 73l40 -151l-235 -88l1 -579q0 -82 13 -102q18 -30 66 -30q68 0 117 11l-16 -117h-579l17 106q104 0 133.5 23t38 47.5t8.5 60.5v504l-169 -63l-40 152l209 78v457q0 85 -10.5 106t-19 31.5t-26 17t-40.5 8.5q-32 4 -106 4l12 114z
" />
    <glyph glyph-name="Nacute" unicode="&#x143;" horiz-adv-x="1706" 
d="M1512 17q-81 -7 -132 -36q-66 99 -156 222l-193 260l-219 283l-398 504v-949q0 -103 19.5 -137t39.5 -44t43 -10t43 1.5t38 4.5l33 4q16 2 25 4l-12 -124h-558l13 110q93 0 120 21q51 40 51 153v937q0 111 -13 139.5t-30.5 37t-43.5 8.5q-32 0 -101 -11l15 135h418
q32 -96 93 -180l131 -178q526 -682 614 -789v861q0 117 -12 139.5t-28.5 27t-50 4.5t-104.5 -11l11 126h514l-14 -115q-57 0 -91 -1.5t-51 -15.5q-29 -21 -29 -129v-1016q0 -116 15 -236zM641 1781l563 260l72 -193l-596 -185z" />
    <glyph glyph-name="nacute" unicode="&#x144;" 
d="M105 106q83 0 111 42q32 48 32 198v483q0 120 -29 159q-29 40 -134 40l16 126l358 54q-11 -81 -11 -172q128 105 268 152q60 21 124 21t124.5 -19t105.5 -62q99 -93 99 -277q0 -112 -7 -219q-19 -321 -11.5 -391t17.5 -93q19 -42 68 -42q47 0 85 12l-15 -118h-512l18 106
q83 0 114 36q13 15 19.5 41.5t11 67.5t7.5 99q6 118 6 267.5t-5.5 218t-26.5 110.5q-40 82 -176 82q-126 0 -266 -86l-48 -29v-672q0 -90 14 -109t32 -22.5t40 -3.5q51 0 95 11l-17 -117h-523zM564 1416l432 344l122 -170l-481 -287z" />
    <glyph glyph-name="Ncommaaccent" unicode="&#x145;" horiz-adv-x="1706" 
d="M1512 17q-81 -7 -132 -36q-66 99 -156 222l-193 260l-219 283l-398 504v-949q0 -103 19.5 -137t39.5 -44t43 -10t43 1.5t38 4.5l33 4q16 2 25 4l-12 -124h-558l13 110q93 0 120 21q51 40 51 153v937q0 111 -13 139.5t-30.5 37t-43.5 8.5q-32 0 -101 -11l15 135h418
q32 -96 93 -180l131 -178q526 -682 614 -789v861q0 117 -12 139.5t-28.5 27t-50 4.5t-104.5 -11l11 126h514l-14 -115q-57 0 -91 -1.5t-51 -15.5q-29 -21 -29 -129v-1016q0 -116 15 -236zM856 -59q157 0 157 -155q0 -118 -69 -218q-28 -40 -57 -63t-47 -23q-31 0 -46 15.5
t-19 27.5q55 53 53 136q-121 12 -121 135q0 60 40 102q41 43 109 43z" />
    <glyph glyph-name="ncommaaccent" unicode="&#x146;" 
d="M105 106q83 0 111 42q32 48 32 198v483q0 120 -29 159q-29 40 -134 40l16 126l358 54q-11 -81 -11 -172q128 105 268 152q60 21 124 21t124.5 -19t105.5 -62q99 -93 99 -277q0 -112 -7 -219q-19 -321 -11.5 -391t17.5 -93q19 -42 68 -42q47 0 85 12l-15 -118h-512l18 106
q83 0 114 36q13 15 19.5 41.5t11 67.5t7.5 99q6 118 6 267.5t-5.5 218t-26.5 110.5q-40 82 -176 82q-126 0 -266 -86l-48 -29v-672q0 -90 14 -109t32 -22.5t40 -3.5q51 0 95 11l-17 -117h-523zM687 -59q157 0 157 -155q0 -118 -69 -218q-28 -40 -57 -63t-47 -23
q-31 0 -46 15.5t-19 27.5q55 53 53 136q-121 12 -121 135q0 60 40 102q41 43 109 43z" />
    <glyph glyph-name="Ncaron" unicode="&#x147;" horiz-adv-x="1706" 
d="M1512 17q-81 -7 -132 -36q-66 99 -156 222l-193 260l-219 283l-398 504v-949q0 -103 19.5 -137t39.5 -44t43 -10t43 1.5t38 4.5l33 4q16 2 25 4l-12 -124h-558l13 110q93 0 120 21q51 40 51 153v937q0 111 -13 139.5t-30.5 37t-43.5 8.5q-32 0 -101 -11l15 135h418
q32 -96 93 -180l131 -178q526 -682 614 -789v861q0 117 -12 139.5t-28.5 27t-50 4.5t-104.5 -11l11 126h514l-14 -115q-57 0 -91 -1.5t-51 -15.5q-29 -21 -29 -129v-1016q0 -116 15 -236zM481 1930l57 110l340 -157l327 157l64 -110l-391 -266z" />
    <glyph glyph-name="ncaron" unicode="&#x148;" 
d="M105 106q83 0 111 42q32 48 32 198v483q0 120 -29 159q-29 40 -134 40l16 126l358 54q-11 -81 -11 -172q128 105 268 152q60 21 124 21t124.5 -19t105.5 -62q99 -93 99 -277q0 -112 -7 -219q-19 -321 -11.5 -391t17.5 -93q19 -42 68 -42q47 0 85 12l-15 -118h-512l18 106
q83 0 114 36q13 15 19.5 41.5t11 67.5t7.5 99q6 118 6 267.5t-5.5 218t-26.5 110.5q-40 82 -176 82q-126 0 -266 -86l-48 -29v-672q0 -90 14 -109t32 -22.5t40 -3.5q51 0 95 11l-17 -117h-523zM303 1636l77 105l320 -174l306 174l84 -105l-390 -302z" />
    <glyph glyph-name="Eng" unicode="&#x14a;" horiz-adv-x="1705" 
d="M1501 21l1 -3q0 -116 -124 -297q-123 -178 -238 -243l-74 76l-1 2l87 122q87 124 114.5 228.5t32.5 202.5l-151 207l-176 230l-558 704v-949q0 -103 19.5 -137t39.5 -44t43 -10t43 1.5t38 4.5l33 4q16 2 25 4l-12 -124h-558l13 110q93 0 120 21q51 40 51 153v937
q0 111 -13 139.5t-30.5 37t-43.5 8.5q-32 0 -101 -11l15 135h408q27 -97 94 -181q631 -814 754 -963v858q0 117 -12 139.5t-28.5 27t-50 4.5t-104.5 -11l11 126h514l-14 -115q-57 0 -91 -1.5t-51 -15.5q-29 -21 -29 -129v-1016z" />
    <glyph glyph-name="eng" unicode="&#x14b;" 
d="M105 106q82 0 111 42q32 47 32 198v483q0 121 -30 159q-31 40 -133 40l16 126l355 54q-11 -77 -11 -171q145 123 307 162q42 10 96.5 10t115 -19t105.5 -62q98 -94 98 -277v-132q0 -478 3 -590t-10.5 -186t-54.5 -149q-89 -165 -309 -315l-73 59l71 93q119 160 150 326
q24 126 28 282v431q0 212 -27 265.5t-69 73t-104 19.5t-112 -14q-94 -26 -168 -72l-47 -29v-672q0 -90 14 -109t32 -22.5t35.5 -3.5t28.5 1t23 3q28 3 47 7l-16 -117h-520z" />
    <glyph glyph-name="Omacron" unicode="&#x14c;" horiz-adv-x="1709" 
d="M170.5 416q-50.5 140 -47.5 312.5t55.5 319.5t151.5 258q214 240 576 240q305 0 493 -198q193 -204 193 -551q-13 -342 -211 -569q-134 -153 -342 -213q-105 -30 -242.5 -30t-265 49.5t-219 145.5t-142 236zM641.5 163q94.5 -51 207 -51t201 38t154.5 116
q143 168 147 467q6 310 -120 494q-132 191 -377 191q-212 0 -343 -152q-142 -164 -148 -465q-6 -312 121 -496q63 -91 157.5 -142zM516 1970h750l-19 -156h-750z" />
    <glyph glyph-name="omacron" unicode="&#x14d;" 
d="M115 604q0 135 50 248.5t134 193.5q173 163 425 163q244 0 387 -162q137 -155 137 -404q0 -283 -178 -473q-175 -185 -431 -185q-252 0 -393 179q-131 165 -131 440zM684 112q76 0 134.5 27t101.5 83q94 119 94 344q0 240 -92 381q-93 141 -253 141q-141 0 -229 -110
q-97 -121 -97 -347q0 -235 91 -375q93 -144 250 -144zM302 1620h765l-20 -162h-765z" />
    <glyph glyph-name="Obreve" unicode="&#x14e;" horiz-adv-x="1709" 
d="M170.5 416q-50.5 140 -47.5 312.5t55.5 319.5t151.5 258q214 240 576 240q305 0 493 -198q193 -204 193 -551q-13 -342 -211 -569q-134 -153 -342 -213q-105 -30 -242.5 -30t-265 49.5t-219 145.5t-142 236zM641.5 163q94.5 -51 207 -51t201 38t154.5 116
q143 168 147 467q6 310 -120 494q-132 191 -377 191q-212 0 -343 -152q-142 -164 -148 -465q-6 -312 121 -496q63 -91 157.5 -142zM878 1704q-248 0 -329 189q-26 61 -26 127l120 18q1 -2 6.5 -15.5t17 -32t29.5 -39.5t44 -39q59 -41 132 -41q117 0 190 83q33 37 52 84
l130 -18q0 -95 -72 -190q-96 -126 -294 -126z" />
    <glyph glyph-name="obreve" unicode="&#x14f;" 
d="M115 604q0 135 50 248.5t134 193.5q173 163 425 163q244 0 387 -162q137 -155 137 -404q0 -283 -178 -473q-175 -185 -431 -185q-252 0 -393 179q-131 165 -131 440zM684 112q76 0 134.5 27t101.5 83q94 119 94 344q0 240 -92 381q-93 141 -253 141q-141 0 -229 -110
q-97 -121 -97 -347q0 -235 91 -375q93 -144 250 -144zM326 1696l110 14q37 -116 156 -156q38 -12 80 -12t69.5 7t50.5 19q86 45 125 144l130 -16q0 -97 -72 -192q-98 -129 -294 -129q-249 0 -329 193q-26 62 -26 128z" />
    <glyph glyph-name="Ohungarumlaut" unicode="&#x150;" horiz-adv-x="1709" 
d="M170.5 416q-50.5 140 -47.5 312.5t55.5 319.5t151.5 258q214 240 576 240q305 0 493 -198q193 -204 193 -551q-13 -342 -211 -569q-134 -153 -342 -213q-105 -30 -242.5 -30t-265 49.5t-219 145.5t-142 236zM641.5 163q94.5 -51 207 -51t201 38t154.5 116
q143 168 147 467q6 310 -120 494q-132 191 -377 191q-212 0 -343 -152q-142 -164 -148 -465q-6 -312 121 -496q63 -91 157.5 -142zM1044 1750l347 274l91 -156l-358 -218zM626 1750l305 274l102 -136l-327 -238z" />
    <glyph glyph-name="ohungarumlaut" unicode="&#x151;" 
d="M115 604q0 135 50 248.5t134 193.5q173 163 425 163q244 0 387 -162q137 -155 137 -404q0 -283 -178 -473q-175 -185 -431 -185q-252 0 -393 179q-131 165 -131 440zM684 112q76 0 134.5 27t101.5 83q94 119 94 344q0 240 -92 381q-93 141 -253 141q-141 0 -229 -110
q-97 -121 -97 -347q0 -235 91 -375q93 -144 250 -144zM764 1434l355 357l118 -148l-386 -301zM316 1434l355 357l119 -148l-386 -301z" />
    <glyph glyph-name="OE" unicode="&#x152;" horiz-adv-x="2214" 
d="M978 0q-241 -44 -443 34q-260 101 -362 382q-50 140 -47 312.5t50.5 319.5t141.5 258q203 240 561 240q85 0 165 -16h667q241 0 361 16q0 -160 -31 -320q-8 -38 -14 -58h-102q-10 161 -62 205q-28 24 -75 30t-117 6h-398v-535h238q98 0 131 43q16 21 21 52.5t10 73.5
l123 1l1 -53q0 -127 -18 -391l-2 -32h-124q-7 112 -25.5 141.5t-46.5 40.5t-76 11h-232v-482q0 -94 52 -129q45 -31 171 -35h190q200 0 276 173q24 54 32 122h124q0 -114 -23 -240l-30 -170h-1087zM644.5 163q94.5 -51 197.5 -51t172 25q43 36 43 170v914q0 125 -34 167
q-75 30 -170.5 30t-184 -37.5t-154.5 -114.5q-143 -165 -147 -465q-6 -312 120 -496q63 -91 157.5 -142z" />
    <glyph glyph-name="oe" unicode="&#x153;" horiz-adv-x="2103" 
d="M1495 -17q-294 0 -422 212q-81 -100 -197.5 -155t-250 -55t-231.5 47t-164 129q-132 164 -132 434q0 278 184 451q173 163 421 163q143 0 250 -56.5t172 -154.5q117 153 297 197q57 14 141.5 14t166.5 -32t136 -94q110 -125 110 -360v-10q0 -127 -30 -127h-749
q0 -209 92.5 -318t262.5 -112q199 14 348 95l45 -84q-151 -126 -345 -171q-58 -13 -105 -13zM1749 779q0 309 -268 309q-108 0 -197 -126q-87 -123 -87 -272l551 24q1 21 1 32v33zM523.5 154q64.5 -42 139.5 -42t133 27t100 83q91 118 91 344q0 223 -91 370
q-94 152 -246 152q-139 0 -228 -110q-100 -122 -100 -347q0 -217 92 -363q45 -72 109.5 -114z" />
    <glyph glyph-name="Racute" unicode="&#x154;" horiz-adv-x="1535" 
d="M571 120.5q22 -10.5 64.5 -10.5t106.5 16l-11 -126h-590l12 110q103 2 131 54q24 42 24 186l-1 901q0 98 -9 121q-18 42 -82 42q-51 0 -104 -12l16 128h288l406 15q368 0 466 -229q30 -72 30 -162.5t-33 -165.5t-85 -132q-104 -114 -242 -147q100 -51 216 -247l115 -196
q89 -147 139 -147q39 -2 85 13l-5 -132h-152q-151 0 -244 103q-46 58 -81 150l-55 140q-37 92 -88 159.5t-86 90.5q-64 41 -200 41h-84v-404q0 -95 15.5 -122t37.5 -37.5zM892 1408q-64 21 -114 21h-124q-75 0 -136 -16v-609h241q136 2 227 84q97 89 97 234q0 226 -191 286z
M461 1781l563 260l72 -193l-596 -185z" />
    <glyph glyph-name="racute" unicode="&#x155;" horiz-adv-x="1024" 
d="M501.5 110.5q24.5 -4.5 102.5 -4.5t122 12l-7 -118h-644l14 106q88 0 113 31q45 56 45 198v482q0 135 -28 167q-31 36 -136 42l14 128l359 54q-10 -73 -10 -167q105 100 246 151q50 17 95 17q192 0 192 -171q0 -101 -29 -217q-2 -8 -3 -10.5t-1 -3.5h-167l6 47l4 40
q2 19 2 40t-3.5 42t-13.5 35q-18 27 -61 27t-81.5 -13t-74.5 -31q-73 -38 -113 -78l2 1l1 -671q0 -95 15 -113t39.5 -22.5zM347 1416l432 344l122 -170l-481 -287z" />
    <glyph glyph-name="Rcommaaccent" unicode="&#x156;" horiz-adv-x="1535" 
d="M571 120.5q22 -10.5 64.5 -10.5t106.5 16l-11 -126h-590l12 110q103 2 131 54q24 42 24 186l-1 901q0 98 -9 121q-18 42 -82 42q-51 0 -104 -12l16 128h288l406 15q368 0 466 -229q30 -72 30 -162.5t-33 -165.5t-85 -132q-104 -114 -242 -147q100 -51 216 -247l115 -196
q89 -147 139 -147q39 -2 85 13l-5 -132h-152q-151 0 -244 103q-46 58 -81 150l-55 140q-37 92 -88 159.5t-86 90.5q-64 41 -200 41h-84v-404q0 -95 15.5 -122t37.5 -37.5zM892 1408q-64 21 -114 21h-124q-75 0 -136 -16v-609h241q136 2 227 84q97 89 97 234q0 226 -191 286z
M826 -59q157 0 157 -155q0 -118 -69 -218q-28 -40 -57 -63t-47 -23q-31 0 -46 15.5t-19 27.5q55 53 53 136q-121 12 -121 135q0 60 40 102q41 43 109 43z" />
    <glyph glyph-name="rcommaaccent" unicode="&#x157;" horiz-adv-x="1024" 
d="M501.5 110.5q24.5 -4.5 102.5 -4.5t122 12l-7 -118h-644l14 106q88 0 113 31q45 56 45 198v482q0 135 -28 167q-31 36 -136 42l14 128l359 54q-10 -73 -10 -167q105 100 246 151q50 17 95 17q192 0 192 -171q0 -101 -29 -217q-2 -8 -3 -10.5t-1 -3.5h-167l6 47l4 40
q2 19 2 40t-3.5 42t-13.5 35q-18 27 -61 27t-81.5 -13t-74.5 -31q-73 -38 -113 -78l2 1l1 -671q0 -95 15 -113t39.5 -22.5zM350 -59q157 0 157 -155q0 -118 -69 -218q-28 -40 -57 -63t-47 -23q-31 0 -46 15.5t-19 27.5q55 53 53 136q-121 12 -121 135q0 60 40 102
q41 43 109 43z" />
    <glyph glyph-name="Rcaron" unicode="&#x158;" horiz-adv-x="1535" 
d="M571 120.5q22 -10.5 64.5 -10.5t106.5 16l-11 -126h-590l12 110q103 2 131 54q24 42 24 186l-1 901q0 98 -9 121q-18 42 -82 42q-51 0 -104 -12l16 128h288l406 15q368 0 466 -229q30 -72 30 -162.5t-33 -165.5t-85 -132q-104 -114 -242 -147q100 -51 216 -247l115 -196
q89 -147 139 -147q39 -2 85 13l-5 -132h-152q-151 0 -244 103q-46 58 -81 150l-55 140q-37 92 -88 159.5t-86 90.5q-64 41 -200 41h-84v-404q0 -95 15.5 -122t37.5 -37.5zM892 1408q-64 21 -114 21h-124q-75 0 -136 -16v-609h241q136 2 227 84q97 89 97 234q0 226 -191 286z
M300 1930l57 110l340 -157l327 157l64 -110l-391 -266z" />
    <glyph glyph-name="rcaron" unicode="&#x159;" horiz-adv-x="1024" 
d="M501.5 110.5q24.5 -4.5 102.5 -4.5t122 12l-7 -118h-644l14 106q88 0 113 31q45 56 45 198v482q0 135 -28 167q-31 36 -136 42l14 128l359 54q-10 -73 -10 -167q105 100 246 151q50 17 95 17q192 0 192 -171q0 -101 -29 -217q-2 -8 -3 -10.5t-1 -3.5h-167l6 47l4 40
q2 19 2 40t-3.5 42t-13.5 35q-18 27 -61 27t-81.5 -13t-74.5 -31q-73 -38 -113 -78l2 1l1 -671q0 -95 15 -113t39.5 -22.5zM87 1636l77 105l320 -174l306 174l84 -105l-390 -302z" />
    <glyph glyph-name="Sacute" unicode="&#x15a;" horiz-adv-x="1364" 
d="M1172 1526q2 -40 2 -140.5t-32 -272.5h-110q-6 253 -200 305q-61 17 -144 17t-140.5 -22t-89.5 -57q-57 -61 -52 -160q8 -152 220 -262q63 -33 126.5 -61t119 -55.5t107.5 -60t97.5 -69.5t80.5 -81q74 -94 82 -203q0 -203 -161 -316q-149 -104 -393 -104q-78 0 -218 26
t-194.5 26t-94.5 -6l-8 2q-1 22 -1 44v42q0 211 23 342h113q12 -281 203 -344q68 -23 153.5 -23t147.5 19.5t106 53.5q92 71 92 182q-10 158 -241 268q-67 32 -108 50l-51 22q-11 5 -53.5 23t-113 62t-125.5 101q-120 125 -124 285q-4 173 143 281q144 105 378 105
q36 0 110 -9l126 -16q54 -7 108.5 -7t115.5 13zM457 1781l563 260l72 -193l-596 -185z" />
    <glyph glyph-name="sacute" unicode="&#x15b;" horiz-adv-x="1031" 
d="M880 1201q3 -18 3 -65t-11 -116l-21 -141h-124q-2 118 -53 165q-52 48 -167 48q-134 0 -175 -90q-13 -31 -13 -71.5t19.5 -71.5t51.5 -57q52 -42 125 -74l119 -53q301 -140 305 -334q2 -164 -127 -264q-117 -92 -284 -92q-80 0 -171 19q-145 29 -167 29h-38q-15 0 -26 -2
q4 190 19 312h130q5 -123 66.5 -180t195.5 -57q152 0 191 86q14 31 14 81.5t-26.5 87.5t-66 63t-86 45t-97 42.5t-111 55.5t-109.5 75q-112 99 -114 237q-2 154 132 247q121 83 285 83q46 0 96 -8q94 -15 133 -15t102 15zM398 1416l432 344l122 -170l-481 -287z" />
    <glyph glyph-name="Scircumflex" unicode="&#x15c;" horiz-adv-x="1364" 
d="M1172 1526q2 -40 2 -140.5t-32 -272.5h-110q-6 253 -200 305q-61 17 -144 17t-140.5 -22t-89.5 -57q-57 -61 -52 -160q8 -152 220 -262q63 -33 126.5 -61t119 -55.5t107.5 -60t97.5 -69.5t80.5 -81q74 -94 82 -203q0 -203 -161 -316q-149 -104 -393 -104q-78 0 -218 26
t-194.5 26t-94.5 -6l-8 2q-1 22 -1 44v42q0 211 23 342h113q12 -281 203 -344q68 -23 153.5 -23t147.5 19.5t106 53.5q92 71 92 182q-10 158 -241 268q-67 32 -108 50l-51 22q-11 5 -53.5 23t-113 62t-125.5 101q-120 125 -124 285q-4 173 143 281q144 105 378 105
q36 0 110 -9l126 -16q54 -7 108.5 -7t115.5 13zM296 1767l396 273l391 -265l-64 -111l-327 157l-339 -157z" />
    <glyph glyph-name="scircumflex" unicode="&#x15d;" horiz-adv-x="1031" 
d="M880 1201q3 -18 3 -65t-11 -116l-21 -141h-124q-2 118 -53 165q-52 48 -167 48q-134 0 -175 -90q-13 -31 -13 -71.5t19.5 -71.5t51.5 -57q52 -42 125 -74l119 -53q301 -140 305 -334q2 -164 -127 -264q-117 -92 -284 -92q-80 0 -171 19q-145 29 -167 29h-38q-15 0 -26 -2
q4 190 19 312h130q5 -123 66.5 -180t195.5 -57q152 0 191 86q14 31 14 81.5t-26.5 87.5t-66 63t-86 45t-97 42.5t-111 55.5t-109.5 75q-112 99 -114 237q-2 154 132 247q121 83 285 83q46 0 96 -8q94 -15 133 -15t102 15zM127 1448l405 301l398 -302l-86 -106l-312 175
l-326 -175z" />
    <glyph glyph-name="Scedilla" unicode="&#x15e;" horiz-adv-x="1364" 
d="M481 -326q70 -28 129.5 -28t78.5 6.5t31 17.5q23 18 25 45q3 40 -48 83q-40 37 -56 103q-12 49 11 84q-48 2 -94 9l-91 16q-140 26 -194.5 26t-94.5 -6l-8 2q-1 22 -1 44v42q0 211 23 342h113q12 -281 203 -344q68 -23 153.5 -23t147.5 19.5t106 53.5q92 71 92 182
q-10 158 -241 268q-67 32 -108 50l-51 22q-11 5 -53.5 23t-113 62t-125.5 101q-120 125 -124 285q-4 173 143 281q144 105 378 105q36 0 110 -9l126 -16q54 -7 108.5 -7t115.5 13q2 -40 2 -140.5t-32 -272.5h-110q-6 253 -200 305q-61 17 -144 17t-140.5 -22t-89.5 -57
q-57 -61 -52 -160q8 -152 220 -262q63 -33 126.5 -61t119 -55.5t107.5 -60t97.5 -69.5t80.5 -81q74 -94 82 -203q0 -185 -137 -297q-126 -103 -338 -120q6 -44 68 -99q104 -87 99 -172q-7 -109 -101 -176q-79 -55 -193 -55t-179 19l12 168z" />
    <glyph glyph-name="scedilla" unicode="&#x15f;" horiz-adv-x="1031" 
d="M275 -326q70 -28 129.5 -28t78.5 6.5t31 17.5q23 18 25 45q3 40 -48 83q-40 37 -56 103q-9 38 -1.5 56.5t15.5 32.5q-62 6 -123 19q-112 24 -135 24h-39q-15 0 -26 -2q4 190 19 312h130q5 -123 66.5 -180t195.5 -57q152 0 191 86q14 31 14 81.5t-26.5 87.5t-66 63t-86 45
t-97 42.5t-111 55.5t-109.5 75q-112 99 -114 237q-2 154 132 247q121 83 285 83q46 0 96 -8q94 -15 133 -15t102 15q3 -18 3 -65t-11 -116l-21 -141h-124q-2 118 -53 165q-52 48 -167 48q-134 0 -175 -90q-13 -31 -13 -71.5t19.5 -71.5t51.5 -57q52 -42 125 -74l119 -53
q301 -140 305 -334q2 -156 -115 -255q-109 -92 -266 -100q8 -45 68 -98q104 -87 99 -172q-7 -109 -101 -176q-79 -55 -193 -55t-179 19l12 168z" />
    <glyph glyph-name="Scaron" unicode="&#x160;" horiz-adv-x="1364" 
d="M1172 1526q2 -40 2 -140.5t-32 -272.5h-110q-6 253 -200 305q-61 17 -144 17t-140.5 -22t-89.5 -57q-57 -61 -52 -160q8 -152 220 -262q63 -33 126.5 -61t119 -55.5t107.5 -60t97.5 -69.5t80.5 -81q74 -94 82 -203q0 -203 -161 -316q-149 -104 -393 -104q-78 0 -218 26
t-194.5 26t-94.5 -6l-8 2q-1 22 -1 44v42q0 211 23 342h113q12 -281 203 -344q68 -23 153.5 -23t147.5 19.5t106 53.5q92 71 92 182q-10 158 -241 268q-67 32 -108 50l-51 22q-11 5 -53.5 23t-113 62t-125.5 101q-120 125 -124 285q-4 173 143 281q144 105 378 105
q36 0 110 -9l126 -16q54 -7 108.5 -7t115.5 13zM296 1930l57 110l340 -157l327 157l64 -110l-391 -266z" />
    <glyph glyph-name="scaron" unicode="&#x161;" horiz-adv-x="1031" 
d="M880 1201q3 -18 3 -65t-11 -116l-21 -141h-124q-2 118 -53 165q-52 48 -167 48q-134 0 -175 -90q-13 -31 -13 -71.5t19.5 -71.5t51.5 -57q52 -42 125 -74l119 -53q301 -140 305 -334q2 -164 -127 -264q-117 -92 -284 -92q-80 0 -171 19q-145 29 -167 29h-38q-15 0 -26 -2
q4 190 19 312h130q5 -123 66.5 -180t195.5 -57q152 0 191 86q14 31 14 81.5t-26.5 87.5t-66 63t-86 45t-97 42.5t-111 55.5t-109.5 75q-112 99 -114 237q-2 154 132 247q121 83 285 83q46 0 96 -8q94 -15 133 -15t102 15zM138 1636l77 105l320 -174l306 174l84 -105
l-390 -302z" />
    <glyph glyph-name="Tcommaaccent" unicode="&#x162;" horiz-adv-x="1535" 
d="M1446 1476l-12 -348h-141q0 88 -4 142t-25.5 84t-67.5 40.5t-129 12.5h-189v-1117q0 -114 17.5 -139.5t41.5 -32t47.5 -6.5t45.5 1.5t47 4.5q67 6 80 10l-12 -128l-768 1l8 111q98 0 152.5 6t81 26.5t32.5 60t6 107.5v1095h-157q-166 -4 -224 -61q-57 -56 -71 -218h-140
q9 80 23 166.5t21 135.5l14 100h1321q2 -11 2 -24v-30zM750 -59q157 0 157 -155q0 -118 -69 -218q-28 -40 -57 -63t-47 -23q-31 0 -46 15.5t-19 27.5q55 53 53 136q-121 12 -121 135q0 60 40 102q41 43 109 43z" />
    <glyph glyph-name="tcommaaccent" unicode="&#x163;" horiz-adv-x="852" 
d="M767 213l44 -85q-99 -92 -253 -130q-49 -13 -103 -13t-99.5 12t-75.5 41q-58 56 -64 199v800h-174l8 102q140 25 194 105q43 64 73 253h109v-307h369v-153h-377v-684q0 -125 36 -165q30 -33 125 -33t188 58zM439 -59q157 0 157 -155q0 -118 -69 -218q-28 -40 -57 -63
t-47 -23q-31 0 -46 15.5t-19 27.5q55 53 53 136q-121 12 -121 135q0 60 40 102q41 43 109 43z" />
    <glyph glyph-name="Tcaron" unicode="&#x164;" horiz-adv-x="1535" 
d="M1446 1476l-12 -348h-141q0 88 -4 142t-25.5 84t-67.5 40.5t-129 12.5h-189v-1117q0 -114 17.5 -139.5t41.5 -32t47.5 -6.5t45.5 1.5t47 4.5q67 6 80 10l-12 -128l-768 1l8 111q98 0 152.5 6t81 26.5t32.5 60t6 107.5v1095h-157q-166 -4 -224 -61q-57 -56 -71 -218h-140
q9 80 23 166.5t21 135.5l14 100h1321q2 -11 2 -24v-30zM370 1930l57 110l340 -157l327 157l64 -110l-391 -266z" />
    <glyph glyph-name="tcaron" unicode="&#x165;" horiz-adv-x="1026" 
d="M774 1157q111 117 114 234q-61 8 -102 54q-41 47 -41 95.5t13 78.5t36 53q50 48 104 48t84.5 -14.5t51.5 -41.5q41 -53 41 -122.5t-12.5 -119.5t-32.5 -94.5t-44.5 -82t-48.5 -64.5q-51 -57 -74 -57q-53 0 -89 33zM767 213l44 -85q-99 -92 -253 -130q-49 -13 -103 -13
t-99.5 12t-75.5 41q-58 56 -64 199v800h-174l8 102q140 25 194 105q43 64 73 253h110v-307h259v-153h-267v-684q0 -127 35 -165q31 -33 128.5 -33t184.5 58z" />
    <glyph glyph-name="Tbar" unicode="&#x166;" horiz-adv-x="1535" 
d="M1446 1476l-12 -348h-141q0 88 -4 142t-25.5 84t-67.5 40.5t-129 12.5h-189v-556h287l-20 -127h-267v-434q0 -114 17.5 -139.5t41.5 -32t47.5 -6.5t45.5 1.5t47 4.5q67 6 80 10l-12 -128l-768 1l8 111q98 0 152.5 6t81 26.5t32.5 60t6 107.5v412h-285l20 127h265v556
h-157q-166 -4 -224 -61q-57 -56 -71 -218h-140q9 80 23 166.5t21 135.5l14 100h1321q2 -11 2 -24v-30z" />
    <glyph glyph-name="tbar" unicode="&#x167;" horiz-adv-x="852" 
d="M767 213l44 -85q-99 -92 -253 -130q-49 -13 -103 -13t-99.5 12t-75.5 41q-58 56 -64 199v296h-158l18 131h140v373h-174l8 102q140 25 194 105q43 64 73 253h109v-307h369v-153h-377v-373h351l-18 -131h-333v-180q0 -125 36 -165q30 -33 125 -33t188 58z" />
    <glyph glyph-name="Utilde" unicode="&#x168;" horiz-adv-x="1537" 
d="M1154.5 1403.5q-19.5 10.5 -48.5 10.5t-84 -12l11 128h481l-15 -116q-95 0 -119 -44q-20 -38 -20 -177v-583q0 -308 -139.5 -466.5t-431.5 -158.5q-307 0 -457 174q-137 160 -137 458v397l-1 188v58q0 107 -14.5 128t-29.5 23.5t-30 2.5q-31 0 -84 -12l14 128h563
l-15 -116q-123 0 -154 -33q-30 -32 -30 -160v-575q0 -534 374 -534q129 0 194 29t103.5 66t66.5 95q57 123 57 334v560q0 123 -17.5 160t-37 47.5zM428 1782q3 13 23.5 44t57.5 63q92 81 199 81q54 0 97.5 -22t77.5 -44q85 -57 114 -57t48 6t36 19q31 23 75 77l89 -97
q-11 -47 -57 -93q-96 -96 -204 -96q-45 0 -90 22t-83 45q-99 57 -127 57t-46.5 -6t-36.5 -19q-28 -20 -74 -77z" />
    <glyph glyph-name="utilde" unicode="&#x169;" 
d="M1288 182l8 1h5l-3 -124l-294 -76q-43 67 -57 157q-108 -90 -283 -140q-60 -17 -123.5 -17t-126 21t-108.5 64q-97 91 -97 266l8 565q0 100 -31 129q-23 21 -95 28l15 98l344 56l-20 -186q-21 -192 -21 -584q0 -160 45 -224q44 -65 156 -65q101 0 175 29q118 48 149 86
l-2 -1v624q0 105 -41 135q-32 25 -143 27l15 103l387 56q-3 -52 -6 -90l-4 -67q-2 -33 -4 -59.5t-3 -55.5q-2 -58 -2 -157v-476q0 -96 16.5 -117t31 -23t31.5 -2h9q31 0 69 19zM244 1504q3 13 22 44t53 63q88 81 195 81q54 0 97.5 -22t77.5 -44q85 -57 114 -57t48 6t36 19
q31 23 75 77l89 -97q-11 -47 -57 -93q-96 -96 -204 -96q-45 0 -90 22t-83 45q-99 57 -127 57t-46.5 -6.5t-36.5 -18.5q-28 -20 -75 -78z" />
    <glyph glyph-name="Umacron" unicode="&#x16a;" horiz-adv-x="1537" 
d="M1154.5 1403.5q-19.5 10.5 -48.5 10.5t-84 -12l11 128h481l-15 -116q-95 0 -119 -44q-20 -38 -20 -177v-583q0 -308 -139.5 -466.5t-431.5 -158.5q-307 0 -457 174q-137 160 -137 458v397l-1 188v58q0 107 -14.5 128t-29.5 23.5t-30 2.5q-31 0 -84 -12l14 128h563
l-15 -116q-123 0 -154 -33q-30 -32 -30 -160v-575q0 -534 374 -534q129 0 194 29t103.5 66t66.5 95q57 123 57 334v560q0 123 -17.5 160t-37 47.5zM478 1970h750l-19 -156h-750z" />
    <glyph glyph-name="umacron" unicode="&#x16b;" 
d="M1288 182l8 1h5l-3 -124l-294 -76q-43 67 -57 157q-108 -90 -283 -140q-60 -17 -123.5 -17t-126 21t-108.5 64q-97 91 -97 266l8 565q0 100 -31 129q-23 21 -95 28l15 98l344 56l-20 -186q-21 -192 -21 -584q0 -160 45 -224q44 -65 156 -65q101 0 175 29q118 48 149 86
l-2 -1v624q0 105 -41 135q-32 25 -143 27l15 103l387 56q-3 -52 -6 -90l-4 -67q-2 -33 -4 -59.5t-3 -55.5q-2 -58 -2 -157v-476q0 -96 16.5 -117t31 -23t31.5 -2h9q31 0 69 19zM267 1620h765l-20 -162h-765z" />
    <glyph glyph-name="Ubreve" unicode="&#x16c;" horiz-adv-x="1537" 
d="M1154.5 1403.5q-19.5 10.5 -48.5 10.5t-84 -12l11 128h481l-15 -116q-95 0 -119 -44q-20 -38 -20 -177v-583q0 -308 -139.5 -466.5t-431.5 -158.5q-307 0 -457 174q-137 160 -137 458v397l-1 188v58q0 107 -14.5 128t-29.5 23.5t-30 2.5q-31 0 -84 -12l14 128h563
l-15 -116q-123 0 -154 -33q-30 -32 -30 -160v-575q0 -534 374 -534q129 0 194 29t103.5 66t66.5 95q57 123 57 334v560q0 123 -17.5 160t-37 47.5zM840 1704q-248 0 -329 189q-26 61 -26 127l120 18q1 -2 6.5 -15.5t17 -32t29.5 -39.5t44 -39q59 -41 132 -41q117 0 190 83
q33 37 52 84l130 -18q0 -95 -72 -190q-96 -126 -294 -126z" />
    <glyph glyph-name="ubreve" unicode="&#x16d;" 
d="M1288 182l8 1h5l-3 -124l-294 -76q-43 67 -57 157q-108 -90 -283 -140q-60 -17 -123.5 -17t-126 21t-108.5 64q-97 91 -97 266l8 565q0 100 -31 129q-23 21 -95 28l15 98l344 56l-20 -186q-21 -192 -21 -584q0 -160 45 -224q44 -65 156 -65q101 0 175 29q118 48 149 86
l-2 -1v624q0 105 -41 135q-32 25 -143 27l15 103l387 56q-3 -52 -6 -90l-4 -67q-2 -33 -4 -59.5t-3 -55.5q-2 -58 -2 -157v-476q0 -96 16.5 -117t31 -23t31.5 -2h9q31 0 69 19zM291 1696l110 14q37 -116 156 -156q38 -12 80 -12t69.5 7t50.5 19q86 45 125 144l130 -16
q0 -97 -72 -192q-98 -129 -294 -129q-249 0 -329 193q-26 62 -26 128z" />
    <glyph glyph-name="Uring" unicode="&#x16e;" horiz-adv-x="1537" 
d="M1154.5 1403.5q-19.5 10.5 -48.5 10.5t-84 -12l11 128h481l-15 -116q-95 0 -119 -44q-20 -38 -20 -177v-583q0 -308 -139.5 -466.5t-431.5 -158.5q-307 0 -457 174q-137 160 -137 458v397l-1 188v58q0 107 -14.5 128t-29.5 23.5t-30 2.5q-31 0 -84 -12l14 128h563
l-15 -116q-123 0 -154 -33q-30 -32 -30 -160v-575q0 -534 374 -534q129 0 194 29t103.5 66t66.5 95q57 123 57 334v560q0 123 -17.5 160t-37 47.5zM835 1502q-61 0 -116 19t-96 55q-85 74 -85 200q0 120 97 194q87 67 205 67q134 0 217 -73q85 -74 85 -200q0 -120 -96 -194
q-87 -68 -211 -68zM942.5 1663q38.5 39 38.5 85.5t-11.5 74.5t-30.5 49q-41 45 -86 45t-70.5 -10.5t-43.5 -29.5q-39 -40 -39 -86.5t11.5 -74t30.5 -48.5q41 -44 101.5 -44t99 39z" />
    <glyph glyph-name="uring" unicode="&#x16f;" 
d="M1288 182l8 1h5l-3 -124l-294 -76q-43 67 -57 157q-108 -90 -283 -140q-60 -17 -123.5 -17t-126 21t-108.5 64q-97 91 -97 266l8 565q0 100 -31 129q-23 21 -95 28l15 98l344 56l-20 -186q-21 -192 -21 -584q0 -160 45 -224q44 -65 156 -65q101 0 175 29q118 48 149 86
l-2 -1v624q0 105 -41 135q-32 25 -143 27l15 103l387 56q-3 -52 -6 -90l-4 -67q-2 -33 -4 -59.5t-3 -55.5q-2 -58 -2 -157v-476q0 -96 16.5 -117t31 -23t31.5 -2h9q31 0 69 19zM641 1281q-60 0 -115.5 19t-95.5 54q-85 76 -85 201q0 120 96 194q87 67 206 67q132 0 217 -73
q85 -74 85 -200q0 -121 -97 -195q-87 -67 -211 -67zM592.5 1414q25.5 -12 55.5 -12t56 10.5t44 29.5q39 38 39 101q0 62 -42 107q-41 45 -101.5 45t-99 -39.5t-38.5 -86t11.5 -74t30.5 -48.5t44.5 -33z" />
    <glyph glyph-name="Uhungarumlaut" unicode="&#x170;" horiz-adv-x="1537" 
d="M1154.5 1403.5q-19.5 10.5 -48.5 10.5t-84 -12l11 128h481l-15 -116q-95 0 -119 -44q-20 -38 -20 -177v-583q0 -308 -139.5 -466.5t-431.5 -158.5q-307 0 -457 174q-137 160 -137 458v397l-1 188v58q0 107 -14.5 128t-29.5 23.5t-30 2.5q-31 0 -84 -12l14 128h563
l-15 -116q-123 0 -154 -33q-30 -32 -30 -160v-575q0 -534 374 -534q129 0 194 29t103.5 66t66.5 95q57 123 57 334v560q0 123 -17.5 160t-37 47.5zM960 1750l347 274l91 -156l-358 -218zM542 1750l305 274l102 -136l-327 -238z" />
    <glyph glyph-name="uhungarumlaut" unicode="&#x171;" 
d="M1288 182l8 1h5l-3 -124l-294 -76q-43 67 -57 157q-108 -90 -283 -140q-60 -17 -123.5 -17t-126 21t-108.5 64q-97 91 -97 266l8 565q0 100 -31 129q-23 21 -95 28l15 98l344 56l-20 -186q-21 -192 -21 -584q0 -160 45 -224q44 -65 156 -65q101 0 175 29q118 48 149 86
l-2 -1v624q0 105 -41 135q-32 25 -143 27l15 103l387 56q-3 -52 -6 -90l-4 -67q-2 -33 -4 -59.5t-3 -55.5q-2 -58 -2 -157v-476q0 -96 16.5 -117t31 -23t31.5 -2h9q31 0 69 19zM729 1434l355 357l118 -148l-386 -301zM281 1434l355 357l119 -148l-386 -301z" />
    <glyph glyph-name="Uogonek" unicode="&#x172;" horiz-adv-x="1537" 
d="M956 -366q27 -8 73 -8t108 28v-95q-38 -31 -97.5 -49.5t-114 -18.5t-100.5 15t-82 44q-79 62 -79 164q0 94 66 181q42 56 96 93q-9 -1 -18 -1h-18q-307 0 -456 174q-138 160 -138 458v397l-1 188v58q0 107 -14.5 128t-29.5 23.5t-30 2.5q-31 0 -84 -12l14 128h563
l-15 -116q-123 0 -154 -33q-30 -32 -30 -160v-575q0 -534 374 -534q129 0 194 29t103.5 66t65.5 95q58 123 58 334v560q0 123 -17.5 160t-37 47.5t-48.5 10.5t-84 -12l11 128h481l-15 -116q-95 0 -118 -44q-21 -38 -21 -177v-583q0 -463 -312 -583q-190 -112 -190 -273
q0 -93 97 -122z" />
    <glyph glyph-name="uogonek" unicode="&#x173;" 
d="M1239 -441q-85 -67 -216 -67q-106 0 -177 58q-79 63 -79 164q0 124 140 250q36 31 77 59q-28 62 -36 119q-108 -90 -284 -140q-59 -17 -122.5 -17t-126 21t-108.5 64q-97 91 -97 266l8 565q0 100 -31 129q-23 21 -95 28l15 98l344 56l-20 -186q-21 -192 -21 -584
q0 -160 44 -224q45 -65 157 -65q101 0 175 29q118 48 149 86l-2 -1v624q0 105 -41 135q-32 25 -143 27l15 103l387 56q-3 -52 -5 -90l-5 -67q-2 -33 -4 -59.5t-3 -55.5q-2 -58 -2 -157v-476q0 -96 16.5 -117t31 -23t31.5 -2h9q31 0 69 19l8 1h5l-3 -124l-74 -19
q-70 -21 -124.5 -62.5t-80.5 -71.5q-59 -70 -59 -152q0 -94 97 -122q28 -8 73.5 -8t107.5 28v-95z" />
    <glyph glyph-name="Wcircumflex" unicode="&#x174;" horiz-adv-x="2214" 
d="M941 1414l-69 -10l12 126h612l-19 -116q-123 0 -155 -9t-41.5 -21.5t-9.5 -32.5t3.5 -33.5t15.5 -52.5q289 -937 308 -1003q286 783 313 861q60 174 59.5 207.5t-9.5 48t-23 22.5q-24 13 -71 13t-93 -12l11 128h526l-14 -116q-80 0 -104 -18q-39 -27 -57 -81l-477 -1302
q-108 -7 -155 -29l-10 1l-347 1029q-299 -893 -313 -938l-16 -50q-3 -8 -4 -13q-108 -7 -155 -29l-10 1q-389 1050 -445 1191l-36 102q-34 92 -58.5 114t-54.5 22t-64 -14l13 130h573l-15 -116q-104 0 -131 -8q-49 -14 -49 -57q0 -29 16 -77l347 -996l329 964
q-56 174 -133 174zM740 1767l396 273l391 -265l-64 -111l-327 157l-339 -157z" />
    <glyph glyph-name="wcircumflex" unicode="&#x175;" horiz-adv-x="1877" 
d="M1855 1074q-20 8 -37.5 8t-34.5 -15.5t-33 -42.5q-28 -49 -62 -146l-317 -877l-119 -19l-235 644l-46 118q-12 35 -16 67l-281 -810l-111 -18l-8 1l-361 951q-16 44 -17 46q-20 59 -59 79.5t-95 20.5l14 108h552l-20 -115q-35 7 -67.5 7t-50.5 -3t-30 -12
q-25 -17 -25 -56t10 -84t27 -98t38 -110l85 -222q20 -52 34 -88q19 -52 34 -130q158 409 202 547l61 194q5 16 10 37.5t10 43.5q8 36 14 72q60 0 130 19q41 -207 175 -589l96 -268q11 -29 16 -55l209 622q18 54 18 105q0 76 -91 76q-24 0 -67 -6l17 114h450zM556 1448
l405 301l398 -302l-86 -106l-312 175l-326 -175z" />
    <glyph glyph-name="Ycircumflex" unicode="&#x176;" horiz-adv-x="1364" 
d="M863.5 119.5q20.5 -10.5 76.5 -10.5t120 16l-9 -125h-698l8 109h43q128 0 157 24.5t36.5 58t7.5 88.5v254l-479 795q-32 47 -61 61q-51 24 -121 24l15 116h608l-26 -116q-103 0 -126.5 -8.5t-32 -22t-8.5 -39t14 -62t37.5 -80.5t54.5 -94l132 -210q34 -55 63 -109
l59 -125q152 283 188 357l62 129q57 123 61 150.5t3.5 45.5t-8.5 33q-20 35 -80 35q-40 0 -100 -12l15 128h558l-19 -116q-87 0 -119 -24q-49 -38 -99 -142l-377 -714v-186q0 -154 12 -186t32.5 -42.5zM327 1767l396 273l391 -265l-64 -111l-327 157l-339 -157z" />
    <glyph glyph-name="ycircumflex" unicode="&#x177;" horiz-adv-x="1193" 
d="M1248 1074q-21 3 -34.5 3t-26.5 -12.5t-26.5 -35.5t-28.5 -55l-31 -73q-48 -113 -100 -251l-233 -618l-62 -158q-73 -177 -112 -235t-76 -90q-77 -67 -180 -67q-106 0 -210 92q-30 27 -52 57l65 111l9 1q118 -66 198 -66q108 0 183 158q20 42 35 81l39 101l-84 39l-3 1
l-348 857q-19 46 -32.5 81t-45.5 59t-49 24h-21q-4 0 -15 -1l14 112h506l-14 -110q-18 -3 -41 -3h-27q-48 0 -69 -38q-9 -17 -9 -40t12 -65.5t32 -100.5q61 -168 96 -254q149 -373 161 -401q93 254 114 317l91 262q77 211 77 259q0 63 -88 63q-33 0 -75 -6l17 117h461z
M265 1448l405 301l398 -302l-86 -106l-312 175l-326 -175z" />
    <glyph glyph-name="Ydieresis" unicode="&#x178;" horiz-adv-x="1364" 
d="M863.5 119.5q20.5 -10.5 76.5 -10.5t120 16l-9 -125h-698l8 109h43q128 0 157 24.5t36.5 58t7.5 88.5v254l-479 795q-32 47 -61 61q-51 24 -121 24l15 116h608l-26 -116q-103 0 -126.5 -8.5t-32 -22t-8.5 -39t14 -62t37.5 -80.5t54.5 -94l132 -210q34 -55 63 -109
l59 -125q152 283 188 357l62 129q57 123 61 150.5t3.5 45.5t-8.5 33q-20 35 -80 35q-40 0 -100 -12l15 128h558l-19 -116q-87 0 -119 -24q-49 -38 -99 -142l-377 -714v-186q0 -154 12 -186t32.5 -42.5zM1017.5 1747q-26.5 -11 -58 -11t-59.5 11t-48 31q-44 41 -44 86.5
t11.5 73t32.5 48.5q43 43 108 43q96 0 134 -91q12 -28 12 -58.5t-11.5 -56.5t-31 -45.5t-46 -30.5zM560.5 1747q-26.5 -11 -58 -11t-60 11t-48.5 31q-45 42 -45 87t12 72.5t33 48.5q43 43 110 43q95 0 132 -91q11 -28 11 -58.5t-11 -56.5t-30 -45.5t-45.5 -30.5z" />
    <glyph glyph-name="Zacute" unicode="&#x179;" 
d="M984 1414h-453q-121 0 -180 -82q-28 -38 -46 -91t-37 -115h-141q42 151 42 411l135 -4q86 -3 223 -3h710l36 -70l-882 -1345h426q195 0 287 165q32 58 54 141l126 -1q0 -93 -17 -195l-37 -225h-1084l-45 68zM471 1781l563 260l72 -193l-596 -185z" />
    <glyph glyph-name="zacute" unicode="&#x17a;" horiz-adv-x="1195" 
d="M799 1069q-58 2 -119 2q-227 0 -301 -32q-89 -39 -103 -192h-129l34 343h876l17 -103q-5 -6 -33 -42q-408 -565 -491.5 -688.5t-153.5 -240.5q279 0 352.5 11t102.5 24.5t54 42.5q53 60 81 193h125l-47 -387h-906l-39 87v2l465 659l122 178q56 83 93 143zM497 1416
l432 344l122 -170l-481 -287z" />
    <glyph glyph-name="Zdotaccent" unicode="&#x17b;" 
d="M984 1414h-453q-121 0 -180 -82q-28 -38 -46 -91t-37 -115h-141q42 151 42 411l135 -4q86 -3 223 -3h710l36 -70l-882 -1345h426q195 0 287 165q32 58 54 141l126 -1q0 -93 -17 -195l-37 -225h-1084l-45 68zM552 1864q0 49 12.5 78t34.5 50q47 45 115 45q65 0 109 -45
q44 -46 44 -113q0 -64 -44 -107q-45 -43 -94 -43q-83 0 -130 43t-47 92z" />
    <glyph glyph-name="zdotaccent" unicode="&#x17c;" horiz-adv-x="1195" 
d="M799 1069q-58 2 -119 2q-227 0 -301 -32q-89 -39 -103 -192h-129l34 343h876l17 -103q-5 -6 -33 -42q-408 -565 -491.5 -688.5t-153.5 -240.5q279 0 352.5 11t102.5 24.5t54 42.5q53 60 81 193h125l-47 -387h-906l-39 87v2l465 659l122 178q56 83 93 143zM520 1438
q-45 43 -45 92t12 78t33 50q45 45 111 45q63 0 106 -45t43 -113q0 -64 -43 -107t-91 -43q-81 0 -126 43z" />
    <glyph glyph-name="Zcaron" unicode="&#x17d;" 
d="M984 1414h-453q-121 0 -180 -82q-28 -38 -46 -91t-37 -115h-141q42 151 42 411l135 -4q86 -3 223 -3h710l36 -70l-882 -1345h426q195 0 287 165q32 58 54 141l126 -1q0 -93 -17 -195l-37 -225h-1084l-45 68zM310 1930l57 110l340 -157l327 157l64 -110l-391 -266z" />
    <glyph glyph-name="zcaron" unicode="&#x17e;" horiz-adv-x="1195" 
d="M799 1069q-58 2 -119 2q-227 0 -301 -32q-89 -39 -103 -192h-129l34 343h876l17 -103q-5 -6 -33 -42q-408 -565 -491.5 -688.5t-153.5 -240.5q279 0 352.5 11t102.5 24.5t54 42.5q53 60 81 193h125l-47 -387h-906l-39 87v2l465 659l122 178q56 83 93 143zM236 1636
l77 105l320 -174l306 174l84 -105l-390 -302z" />
    <glyph glyph-name="florin" unicode="&#x192;" horiz-adv-x="860" 
d="M542 1041q-108 -1000 -225 -1397l-143 2l148 1395h-188l24 128l179 21q6 48 15 96l18 97q26 144 126 251q124 135 338 135q115 0 163 -26t63.5 -51t12.5 -53.5t-9.5 -52.5t-15 -46t-17.5 -41l-16 -33q-15 -1 -30 -3q-36 -5 -51.5 -4t-25.5 1l-22 2q-30 1 -40 6
q11 51 11 78t-5 45.5t-17 30.5q-24 26 -72 25.5t-78 -26t-53 -65.5q-42 -76 -56 -185l-19 -181h272l-30 -149h-257z" />
    <glyph glyph-name="AEacute" unicode="&#x1fc;" horiz-adv-x="2049" 
d="M333 161q0 -45 57 -51q104 0 155 17l-16 -127h-568l20 109q61 0 84.5 22t37.5 45l721 1237h-140q-145 0 -275 -38l9 155h1182q242 0 358 16q0 -225 -46 -378h-97q-10 162 -62 207q-29 25 -76 31.5t-117 6.5h-376v-612h190q147 0 174 95q9 32 13 74l117 1v-49
q0 -148 -8 -272l-11 -169h-117q-6 106 -34 140t-60 45.5t-80 11.5h-184v-399q0 -98 38 -129t157 -35h196q200 0 276 173q24 54 32 122h121q0 -114 -22 -240l-31 -170h-1145l-7 2q9 77 17 108q85 0 112 24q47 40 47 135v409h-377l-241 -455q-24 -45 -24 -62zM975 801l1 587
l-312 -587h311zM953 1781l563 260l72 -193l-596 -185z" />
    <glyph glyph-name="aeacute" unicode="&#x1fd;" horiz-adv-x="1912" 
d="M1325 -17q-297 0 -410 218q-61 -93 -181 -159q-197 -106 -388 -42q-138 47 -190 170q-26 60 -26 144t54 155t148 118q188 94 499 94h13v2q0 87 -2.5 157.5t-27 115.5t-59.5 72q-65 50 -162.5 50t-159 -50t-61.5 -146q0 -43 8 -75h-176q-15 6 -24.5 89t-9.5 98q0 22 8 32
l86 54q211 129 440.5 129t302.5 -178q153 178 361 178q426 0 426 -496q0 -127 -30 -127h-728q0 -210 89.5 -318.5t256.5 -111.5q191 13 349 98l45 -87q-150 -125 -345 -171q-58 -13 -106 -13zM1562 714q1 21 1 32v33q0 234 -136 289q-48 20 -109 20t-111 -34.5t-87 -91.5
q-84 -125 -84 -272zM843 571q-14 4 -69 4t-139 -17.5t-146 -50.5q-133 -71 -133 -190q0 -83 54 -139q55 -56 143 -56q107 0 221 98q33 29 59 61q4 89 6 159.5t4 130.5zM815 1416l432 344l122 -170l-481 -287z" />
    <glyph glyph-name="Scommaaccent" unicode="&#x218;" horiz-adv-x="1364" 
d="M1172 1526q2 -40 2 -140.5t-32 -272.5h-110q-6 253 -200 305q-61 17 -144 17t-140.5 -22t-89.5 -57q-57 -61 -52 -160q8 -152 220 -262q63 -33 126.5 -61t119 -55.5t107.5 -60t97.5 -69.5t80.5 -81q74 -94 82 -203q0 -203 -161 -316q-149 -104 -393 -104q-78 0 -218 26
t-194.5 26t-94.5 -6l-8 2q-1 22 -1 44v42q0 211 23 342h113q12 -281 203 -344q68 -23 153.5 -23t147.5 19.5t106 53.5q92 71 92 182q-10 158 -241 268q-67 32 -108 50l-51 22q-11 5 -53.5 23t-113 62t-125.5 101q-120 125 -124 285q-4 173 143 281q144 105 378 105
q36 0 110 -9l126 -16q54 -7 108.5 -7t115.5 13zM692 -59q157 0 157 -155q0 -118 -69 -218q-28 -40 -57 -63t-47 -23q-31 0 -46 15.5t-19 27.5q55 53 53 136q-121 12 -121 135q0 60 40 102q41 43 109 43z" />
    <glyph glyph-name="scommaaccent" unicode="&#x219;" horiz-adv-x="1031" 
d="M880 1201q3 -18 3 -65t-11 -116l-21 -141h-124q-2 118 -53 165q-52 48 -167 48q-134 0 -175 -90q-13 -31 -13 -71.5t19.5 -71.5t51.5 -57q52 -42 125 -74l119 -53q301 -140 305 -334q2 -164 -127 -264q-117 -92 -284 -92q-80 0 -171 19q-145 29 -167 29h-38q-15 0 -26 -2
q4 190 19 312h130q5 -123 66.5 -180t195.5 -57q152 0 191 86q14 31 14 81.5t-26.5 87.5t-66 63t-86 45t-97 42.5t-111 55.5t-109.5 75q-112 99 -114 237q-2 154 132 247q121 83 285 83q46 0 96 -8q94 -15 133 -15t102 15zM486 -59q157 0 157 -155q0 -118 -69 -218
q-28 -40 -57 -63t-47 -23q-31 0 -46 15.5t-19 27.5q55 53 53 136q-121 12 -121 135q0 60 40 102q41 43 109 43z" />
    <glyph glyph-name="dotlessj" unicode="&#x237;" horiz-adv-x="683" 
d="M519 1210q-38 -97 -38 -512q0 -227 3 -303t4 -115q4 -93 4.5 -204.5t-37 -215t-95.5 -178.5q-98 -125 -259 -202l-71 61q218 179 248 499q10 108 10 226l-1 274v302q0 105 -48 146q-46 40 -159 40l16 126z" />
    <glyph glyph-name="circumflex" unicode="&#x2c6;" horiz-adv-x="1048" 
d="M188 1448l405 301l398 -302l-86 -106l-312 175l-326 -175z" />
    <glyph glyph-name="caron" unicode="&#x2c7;" horiz-adv-x="1229" 
d="M199 1636l77 105l320 -174l306 174l84 -105l-390 -302z" />
    <glyph glyph-name="breve" unicode="&#x2d8;" horiz-adv-x="1019" 
d="M154 1696l110 14q37 -116 156 -156q38 -12 80 -12t69.5 7t50.5 19q86 45 125 144l130 -16q0 -97 -72 -192q-98 -129 -294 -129q-249 0 -329 193q-26 62 -26 128z" />
    <glyph glyph-name="dotaccent" unicode="&#x2d9;" horiz-adv-x="678" 
d="M229 1438q-45 43 -45 92t12 78t33 50q45 45 111 45q63 0 106 -45t43 -113q0 -64 -43 -107t-91 -43q-81 0 -126 43z" />
    <glyph glyph-name="ring" unicode="&#x2da;" horiz-adv-x="505" 
d="M247 1281q-60 0 -115.5 19t-95.5 54q-85 76 -85 201q0 120 96 194q87 67 206 67q132 0 217 -73q85 -74 85 -200q0 -121 -97 -195q-87 -67 -211 -67zM198.5 1414q25.5 -12 55.5 -12t56 10.5t44 29.5q39 38 39 101q0 62 -42 107q-41 45 -101.5 45t-99 -39.5t-38.5 -86
t11.5 -74t30.5 -48.5t44.5 -33z" />
    <glyph glyph-name="ogonek" unicode="&#x2db;" horiz-adv-x="684" 
d="M593 -445q-102 -63 -231 -63q-155 0 -208 106q-19 37 -19 82.5t11 83t29 71.5q66 125 216 225l102 -16q-173 -173 -173 -297t130 -124q43 0 143 25v-93z" />
    <glyph glyph-name="tilde" unicode="&#x2dc;" horiz-adv-x="1020" 
d="M107 1504q3 13 22 44t53 63q88 81 195 81q54 0 97.5 -22t77.5 -44q85 -57 114 -57t48 6t36 19q31 23 75 77l89 -97q-11 -47 -57 -93q-96 -96 -204 -96q-45 0 -90 22t-83 45q-99 57 -127 57t-46.5 -6.5t-36.5 -18.5q-28 -20 -75 -78z" />
    <glyph glyph-name="hungarumlaut" unicode="&#x2dd;" horiz-adv-x="1287" 
d="M764 1434l355 357l118 -148l-386 -301zM316 1434l355 357l119 -148l-386 -301z" />
    <glyph glyph-name="Delta" unicode="&#x394;" horiz-adv-x="1877" 
d="M891 1566h44l742 -1537l-18 -28h-1449l-16 23zM1388 144l-512 1104l-490 -1104h1002z" />
    <glyph glyph-name="Delta" unicode="&#x2206;" horiz-adv-x="1877" 
d="M891 1566h44l742 -1537l-18 -28h-1449l-16 23zM1388 144l-512 1104l-490 -1104h1002z" />
    <glyph glyph-name="Omega" unicode="&#x3a9;" horiz-adv-x="1881" 
d="M188 2q-54 258 -54 408h123q22 -191 191 -230q54 -12 123 -12h149v51q-202 57 -337 257q-131 193 -131 415q0 139 55 258.5t151 207.5q205 188 512 188q331 0 510 -188q168 -176 168 -466q0 -214 -132.5 -408.5t-323.5 -258.5v-56h140q140 0 208 54q74 57 89 188h123
q0 -106 -55 -363l-9 -47h-631v284q168 48 273 248q91 175 91 359q0 218 -95 366q-115 179 -356 179q-316 0 -441 -293q-50 -117 -50 -252q0 -181 98 -365q66 -125 167 -198q51 -37 111 -54v-274h-660z" />
    <glyph glyph-name="Omega" unicode="&#x2126;" horiz-adv-x="1881" 
d="M188 2q-54 258 -54 408h123q22 -191 191 -230q54 -12 123 -12h149v51q-202 57 -337 257q-131 193 -131 415q0 139 55 258.5t151 207.5q205 188 512 188q331 0 510 -188q168 -176 168 -466q0 -214 -132.5 -408.5t-323.5 -258.5v-56h140q140 0 208 54q74 57 89 188h123
q0 -106 -55 -363l-9 -47h-631v284q168 48 273 248q91 175 91 359q0 218 -95 366q-115 179 -356 179q-316 0 -441 -293q-50 -117 -50 -252q0 -181 98 -365q66 -125 167 -198q51 -37 111 -54v-274h-660z" />
    <glyph glyph-name="pi" unicode="&#x3c0;" horiz-adv-x="1537" 
d="M1201 916l-91 -1q-3 -37 -6.5 -85.5t-8 -100.5t-8.5 -104.5t-7 -98.5q-7 -109 -7 -154.5t8 -87t23 -66.5q31 -48 91 -40q80 21 99 164h133q-7 -163 -111 -264q-89 -86 -196 -86q-177 0 -214 135q-13 47 -13 95.5t4 99t10 111t14 127.5l31 254l14 100l-327 -2l-47 -433
q-27 -253 -57.5 -338t-65 -119.5t-96.5 -34.5t-96.5 32t-34.5 82q0 5 20 29l42 53q96 125 123 296l74 432h-34q-112 0 -139.5 -17t-37.5 -36.5t-17 -38.5t-9.5 -27.5t-6.5 -16.5h-110l-7 3q3 12 6.5 29.5t10.5 47t21.5 61.5t38 63t61.5 56q84 56 217 56h578q148 0 218 57
q32 25 43 57h96l-55 -170q-16 -51 -60.5 -85.5t-113.5 -33.5z" />
    <glyph glyph-name="uni1E02" unicode="&#x1e02;" horiz-adv-x="1536" 
d="M785 -16l-376 15h-306l8 111q91 0 124 24q59 45 59 148v940q0 159 -62 184q-18 8 -59 8t-68 -11l9 127h295q68 2 132 5q172 10 278.5 10t204 -25.5t162.5 -72.5q131 -95 131 -263q0 -133 -79 -232q-65 -81 -175 -125q187 -17 287 -125q90 -96 90 -239q0 -209 -168 -340
q-179 -139 -487 -139zM1078 1164q0 265 -348 265q-115 0 -157 -9l-62 -12v-553h291q216 0 261 174q15 58 15 135zM511 739l2 -503q0 -84 61 -111q58 -25 206 -25t222.5 25.5t117.5 71.5q77 81 77 249t-89 230q-92 64 -345 64zM590 1864q0 49 12.5 78t34.5 50q47 45 115 45
q65 0 109 -45q44 -46 44 -113q0 -64 -44 -107q-45 -43 -94 -43q-83 0 -130 43t-47 92z" />
    <glyph glyph-name="uni1E03" unicode="&#x1e03;" horiz-adv-x="1362" 
d="M896.5 38q-107.5 -53 -268 -53t-294.5 56l-128 -64l-10 2q12 216 12 342v226l-6 818q0 89 -8 108.5t-16.5 29.5t-24 16.5t-34.5 8.5q-27 4 -79 4h-25l12 114l402 59q-19 -85 -19 -510l-8 -132q125 100 282 135q48 11 110.5 11t147 -28t152.5 -94q153 -149 153 -445
q0 -269 -165 -460q-78 -91 -185.5 -144zM410 213q44 -65 188 -93q42 -8 105.5 -8t133 35t117.5 100q96 132 96 370q0 192 -101 308q-100 115 -263 115q-69 0 -139 -28q-116 -46 -139 -72l2 1v-728zM811 1438q-45 43 -45 92t12 78t33 50q45 45 111 45q63 0 106 -45t43 -113
q0 -64 -43 -107t-91 -43q-81 0 -126 43z" />
    <glyph glyph-name="uni1E0A" unicode="&#x1e0a;" horiz-adv-x="1539" 
d="M707 -15l-334 14l-281 1l7 110q90 0 120 26q53 46 53 150v943q0 105 -21 136.5t-41 40.5t-50 9t-69 -12l10 127h252l365 15q776 0 776 -736q0 -373 -215 -598q-216 -226 -572 -226zM824 1416q-79 13 -162.5 13t-172.5 -20v-1201q0 -50 7.5 -62t22.5 -17.5t43 -8.5
q48 -5 170.5 -5t216.5 36.5t162 114.5q144 167 144 497q0 582 -431 653zM551 1864q0 49 12.5 78t34.5 50q47 45 115 45q65 0 109 -45q44 -46 44 -113q0 -64 -44 -107q-45 -43 -94 -43q-83 0 -130 43t-47 92z" />
    <glyph glyph-name="uni1E0B" unicode="&#x1e0b;" horiz-adv-x="1362" 
d="M544 1184q76 25 176.5 25t204.5 -28v20q0 236 -8 260.5t-19.5 35.5t-30 19t-40.5 12q-28 4 -97 4h-19l15 114l416 58q0 -9 -1.5 -15t-4.5 -27.5t-6 -73.5q-8 -139 -8 -374v-912q0 -78 17.5 -110t49.5 -32q42 0 96 19l29 9q-2 -12 -3.5 -33.5t-3.5 -44.5t-3 -50l-314 -78
q-11 5 -30.5 61t-26.5 82q-127 -90 -270 -127q-50 -13 -121 -13t-155 36t-145 107q-133 151 -133 417q0 174 80 330q120 235 355 309zM616 168q56 2 108 13t94 25q89 29 109 49l-2 -1v727q-44 66 -169 93q-36 8 -94 8t-125.5 -26.5t-115.5 -86.5q-100 -125 -100 -392
q0 -180 91 -299q87 -113 204 -110zM291 1438q-45 43 -45 92t12 78t33 50q45 45 111 45q63 0 106 -45t43 -113q0 -64 -43 -107t-91 -43q-81 0 -126 43z" />
    <glyph glyph-name="uni1E1E" unicode="&#x1e1e;" horiz-adv-x="1368" 
d="M939 1530q243 0 359 16q0 -237 -45 -387h-106q-11 161 -73 209q-52 41 -203 41h-392v-557h223q115 0 145.5 25t42 59t18.5 90h128l-23 -477h-123q-2 81 -25 122t-49 51q-22 9 -136 10.5t-146.5 2t-54.5 0.5v-464q0 -92 22.5 -116.5t50.5 -32t57 -7.5t47.5 0.5t39.5 0.5
q51 2 83 7l-13 -123h-679l17 110q100 0 130 44q28 39 28 153v914q0 193 -86 193q-36 0 -76 -9l12 125h827zM608 1864q0 49 12.5 78t34.5 50q47 45 115 45q65 0 109 -45q44 -46 44 -113q0 -64 -44 -107q-45 -43 -94 -43q-83 0 -130 43t-47 92z" />
    <glyph glyph-name="uni1E1F" unicode="&#x1e1f;" horiz-adv-x="852" 
d="M457 1037l1 -791q0 -91 18 -111t40.5 -24.5t43.5 -4.5t43 0.5t51 1.5q67 2 112 8l-13 -116h-684l13 106q63 0 98 7t52.5 31t21.5 69.5t4 121.5l-2 702h-176l11 108q45 3 100 20t67 23q-4 28 -4 69t13.5 97.5t40 109.5t65 100.5t89.5 83.5q110 76 251 76q181 0 245 -108
q29 -48 29 -99q0 -62 -19 -144l-3 -18h-159v86q0 64 -26 88q-46 44 -142 44q-133 0 -176 -129q-17 -48 -17 -117t11 -137h331l-12 -153h-318zM250 1744q-45 43 -45 92t12 78t33 50q45 45 111 45q63 0 106 -45t43 -113q0 -64 -43 -107t-91 -43q-81 0 -126 43z" />
    <glyph glyph-name="uni1E40" unicode="&#x1e40;" horiz-adv-x="2219" 
d="M457 122.5q20 -8.5 52.5 -8.5t119.5 15l-11 -129h-539l6 114q85 -2 113 30q47 53 129 530l92 566q7 42 7 78q0 96 -80 96q-55 0 -103 -12l16 128h452q15 -88 60 -238q99 -320 149 -465q127 -367 181 -511q301 888 340 1023.5t51 190.5h449l-15 -116q-98 0 -123.5 -13
t-33.5 -30t-8 -37q0 -26 5 -69l19 -133q67 -479 155 -853q25 -98 41 -122q25 -39 72 -39q65 0 105 11l-13 -129h-599l13 99q82 -2 113 22q58 44 58 133q0 37 -14 116l-157 878l-283 -838q-66 -199 -122 -397q-46 0 -148 -30l-438 1263q-18 -126 -40 -254q-48 -263 -65 -352
t-28 -154q-25 -149 -25 -218t3 -88.5t13.5 -34t30.5 -23zM967 1864q0 49 12.5 78t34.5 50q47 45 115 45q65 0 109 -45q44 -46 44 -113q0 -64 -44 -107q-45 -43 -94 -43q-83 0 -130 43t-47 92z" />
    <glyph glyph-name="uni1E41" unicode="&#x1e41;" horiz-adv-x="2049" 
d="M749 1030q-110 0 -276 -115v-674q0 -89 16 -108.5t34.5 -23t40.5 -3.5q36 0 91 11l-15 -117h-525l16 106q81 0 113 54q33 55 33 186v495q0 103 -31 155q-31 40 -135 40l15 118l366 54l-8 -55q-8 -67 -8 -115l55 40q94 69 182 100t150 31q216 0 291 -177q126 109 261 156
q58 21 122.5 21t124 -22t102.5 -66q92 -94 92 -268q0 -110 -6 -218q-19 -313 -12 -391t14 -100q14 -38 49 -38q49 0 104 11l-14 -117h-495l17 106q69 0 97 33q28 35 35 196t7 313t-8.5 215t-32.5 100q-43 66 -181 66q-102 0 -249 -100q5 -45 5 -93q0 -78 -8 -194
q-27 -423 8 -498q18 -38 68 -38t100 11l-16 -117h-529l17 106q90 0 118 27q30 28 34 206q3 100 3 277.5t-8.5 242.5t-32.5 103q-44 68 -191 68zM971 1438q-45 43 -45 92t12 78t33 50q45 45 111 45q63 0 106 -45t43 -113q0 -64 -43 -107t-91 -43q-81 0 -126 43z" />
    <glyph glyph-name="uni1E56" unicode="&#x1e56;" horiz-adv-x="1364" 
d="M588 117q29 -7 75.5 -7t119.5 20l-12 -130h-646l11 109q89 0 124 55q33 51 33 167l-1 909q0 120 -9.5 143t-28 31t-54.5 8q-55 0 -106 -11l18 119h202q190 0 272 6q141 9 253.5 8t209.5 -35t157 -94q115 -114 115 -320q0 -222 -159 -362q-153 -136 -385 -136
q-91 0 -184 25l-19 117q88 -20 162.5 -20t142.5 25t115 72q98 96 98 266q0 350 -393 350q-92 0 -187 -19v-1152q0 -90 23.5 -113.5t52.5 -30.5zM603 1864q0 49 12.5 78t34.5 50q47 45 115 45q65 0 109 -45q44 -46 44 -113q0 -64 -44 -107q-45 -43 -94 -43q-83 0 -130 43
t-47 92z" />
    <glyph glyph-name="uni1E57" unicode="&#x1e57;" 
d="M447 -57l2 -197q0 -88 10 -106t25.5 -22.5t51.5 -4.5t70 3q88 6 98 13l-18 -137h-622l16 111q93 0 119 28q48 50 48 191v1026q0 121 -43 156q-27 22 -116 22l16 128l350 56q-2 -21 -4 -44t-3.5 -50.5t-3.5 -57.5q125 103 283 140q50 11 97 11t101 -12t104.5 -39.5
t94.5 -71t77 -106.5q71 -136 71 -338q0 -272 -157 -460q-164 -197 -420 -197q-146 0 -246 28q-1 -17 -1 -35v-35zM449 213q41 -65 183 -93q40 -8 104.5 -8t131 35t110.5 100q85 128 85 370q0 301 -182 391q-66 32 -134 32t-112 -12t-83 -28q-82 -34 -105 -60l2 1v-728z
M653 1438q-45 43 -45 92t12 78t33 50q45 45 111 45q63 0 106 -45t43 -113q0 -64 -43 -107t-91 -43q-81 0 -126 43z" />
    <glyph glyph-name="uni1E60" unicode="&#x1e60;" horiz-adv-x="1364" 
d="M1172 1526q2 -40 2 -140.5t-32 -272.5h-110q-6 253 -200 305q-61 17 -144 17t-140.5 -22t-89.5 -57q-57 -61 -52 -160q8 -152 220 -262q63 -33 126.5 -61t119 -55.5t107.5 -60t97.5 -69.5t80.5 -81q74 -94 82 -203q0 -203 -161 -316q-149 -104 -393 -104q-78 0 -218 26
t-194.5 26t-94.5 -6l-8 2q-1 22 -1 44v42q0 211 23 342h113q12 -281 203 -344q68 -23 153.5 -23t147.5 19.5t106 53.5q92 71 92 182q-10 158 -241 268q-67 32 -108 50l-51 22q-11 5 -53.5 23t-113 62t-125.5 101q-120 125 -124 285q-4 173 143 281q144 105 378 105
q36 0 110 -9l126 -16q54 -7 108.5 -7t115.5 13zM538 1864q0 49 12.5 78t34.5 50q47 45 115 45q65 0 109 -45q44 -46 44 -113q0 -64 -44 -107q-45 -43 -94 -43q-83 0 -130 43t-47 92z" />
    <glyph glyph-name="uni1E61" unicode="&#x1e61;" horiz-adv-x="1031" 
d="M880 1201q3 -18 3 -65t-11 -116l-21 -141h-124q-2 118 -53 165q-52 48 -167 48q-134 0 -175 -90q-13 -31 -13 -71.5t19.5 -71.5t51.5 -57q52 -42 125 -74l119 -53q301 -140 305 -334q2 -164 -127 -264q-117 -92 -284 -92q-80 0 -171 19q-145 29 -167 29h-38q-15 0 -26 -2
q4 190 19 312h130q5 -123 66.5 -180t195.5 -57q152 0 191 86q14 31 14 81.5t-26.5 87.5t-66 63t-86 45t-97 42.5t-111 55.5t-109.5 75q-112 99 -114 237q-2 154 132 247q121 83 285 83q46 0 96 -8q94 -15 133 -15t102 15zM421 1438q-45 43 -45 92t12 78t33 50q45 45 111 45
q63 0 106 -45t43 -113q0 -64 -43 -107t-91 -43q-81 0 -126 43z" />
    <glyph glyph-name="uni1E6A" unicode="&#x1e6a;" horiz-adv-x="1535" 
d="M1446 1476l-12 -348h-141q0 88 -4 142t-25.5 84t-67.5 40.5t-129 12.5h-189v-1117q0 -114 17.5 -139.5t41.5 -32t47.5 -6.5t45.5 1.5t47 4.5q67 6 80 10l-12 -128l-768 1l8 111q98 0 152.5 6t81 26.5t32.5 60t6 107.5v1095h-157q-166 -4 -224 -61q-57 -56 -71 -218h-140
q9 80 23 166.5t21 135.5l14 100h1321q2 -11 2 -24v-30zM612 1864q0 49 12.5 78t34.5 50q47 45 115 45q65 0 109 -45q44 -46 44 -113q0 -64 -44 -107q-45 -43 -94 -43q-83 0 -130 43t-47 92z" />
    <glyph glyph-name="uni1E6B" unicode="&#x1e6b;" horiz-adv-x="852" 
d="M767 213l44 -85q-99 -92 -253 -130q-49 -13 -103 -13t-99.5 12t-75.5 41q-58 56 -64 199v800h-174l8 102q140 25 194 105q43 64 73 253h109v-307h369v-153h-377v-684q0 -125 36 -165q30 -33 125 -33t188 58zM200 1744q-45 43 -45 92t12 78t33 50q45 45 111 45
q63 0 106 -45t43 -113q0 -64 -43 -107t-91 -43q-81 0 -126 43z" />
    <glyph glyph-name="Wgrave" unicode="&#x1e80;" horiz-adv-x="2214" 
d="M941 1414l-69 -10l12 126h612l-19 -116q-123 0 -155 -9t-41.5 -21.5t-9.5 -32.5t3.5 -33.5t15.5 -52.5q289 -937 308 -1003q286 783 313 861q60 174 59.5 207.5t-9.5 48t-23 22.5q-24 13 -71 13t-93 -12l11 128h526l-14 -116q-80 0 -104 -18q-39 -27 -57 -81l-477 -1302
q-108 -7 -155 -29l-10 1l-347 1029q-299 -893 -313 -938l-16 -50q-3 -8 -4 -13q-108 -7 -155 -29l-10 1q-389 1050 -445 1191l-36 102q-34 92 -58.5 114t-54.5 22t-64 -14l13 130h573l-15 -116q-104 0 -131 -8q-49 -14 -49 -57q0 -29 16 -77l347 -996l329 964
q-56 174 -133 174zM767 2041l563 -260l-39 -118l-596 185z" />
    <glyph glyph-name="wgrave" unicode="&#x1e81;" horiz-adv-x="1877" 
d="M1855 1074q-20 8 -37.5 8t-34.5 -15.5t-33 -42.5q-28 -49 -62 -146l-317 -877l-119 -19l-235 644l-46 118q-12 35 -16 67l-281 -810l-111 -18l-8 1l-361 951q-16 44 -17 46q-20 59 -59 79.5t-95 20.5l14 108h552l-20 -115q-35 7 -67.5 7t-50.5 -3t-30 -12
q-25 -17 -25 -56t10 -84t27 -98t38 -110l85 -222q20 -52 34 -88q19 -52 34 -130q158 409 202 547l61 194q5 16 10 37.5t10 43.5q8 36 14 72q60 0 130 19q41 -207 175 -589l96 -268q11 -29 16 -55l209 622q18 54 18 105q0 76 -91 76q-24 0 -67 -6l17 114h450zM518 1590
l122 170l431 -344l-73 -113z" />
    <glyph glyph-name="Wacute" unicode="&#x1e82;" horiz-adv-x="2214" 
d="M941 1414l-69 -10l12 126h612l-19 -116q-123 0 -155 -9t-41.5 -21.5t-9.5 -32.5t3.5 -33.5t15.5 -52.5q289 -937 308 -1003q286 783 313 861q60 174 59.5 207.5t-9.5 48t-23 22.5q-24 13 -71 13t-93 -12l11 128h526l-14 -116q-80 0 -104 -18q-39 -27 -57 -81l-477 -1302
q-108 -7 -155 -29l-10 1l-347 1029q-299 -893 -313 -938l-16 -50q-3 -8 -4 -13q-108 -7 -155 -29l-10 1q-389 1050 -445 1191l-36 102q-34 92 -58.5 114t-54.5 22t-64 -14l13 130h573l-15 -116q-104 0 -131 -8q-49 -14 -49 -57q0 -29 16 -77l347 -996l329 964
q-56 174 -133 174zM900 1781l563 260l72 -193l-596 -185z" />
    <glyph glyph-name="wacute" unicode="&#x1e83;" horiz-adv-x="1877" 
d="M1855 1074q-20 8 -37.5 8t-34.5 -15.5t-33 -42.5q-28 -49 -62 -146l-317 -877l-119 -19l-235 644l-46 118q-12 35 -16 67l-281 -810l-111 -18l-8 1l-361 951q-16 44 -17 46q-20 59 -59 79.5t-95 20.5l14 108h552l-20 -115q-35 7 -67.5 7t-50.5 -3t-30 -12
q-25 -17 -25 -56t10 -84t27 -98t38 -110l85 -222q20 -52 34 -88q19 -52 34 -130q158 409 202 547l61 194q5 16 10 37.5t10 43.5q8 36 14 72q60 0 130 19q41 -207 175 -589l96 -268q11 -29 16 -55l209 622q18 54 18 105q0 76 -91 76q-24 0 -67 -6l17 114h450zM827 1416
l432 344l122 -170l-481 -287z" />
    <glyph glyph-name="Wdieresis" unicode="&#x1e84;" horiz-adv-x="2214" 
d="M941 1414l-69 -10l12 126h612l-19 -116q-123 0 -155 -9t-41.5 -21.5t-9.5 -32.5t3.5 -33.5t15.5 -52.5q289 -937 308 -1003q286 783 313 861q60 174 59.5 207.5t-9.5 48t-23 22.5q-24 13 -71 13t-93 -12l11 128h526l-14 -116q-80 0 -104 -18q-39 -27 -57 -81l-477 -1302
q-108 -7 -155 -29l-10 1l-347 1029q-299 -893 -313 -938l-16 -50q-3 -8 -4 -13q-108 -7 -155 -29l-10 1q-389 1050 -445 1191l-36 102q-34 92 -58.5 114t-54.5 22t-64 -14l13 130h573l-15 -116q-104 0 -131 -8q-49 -14 -49 -57q0 -29 16 -77l347 -996l329 964
q-56 174 -133 174zM1430.5 1747q-26.5 -11 -58 -11t-59.5 11t-48 31q-44 41 -44 86.5t11.5 73t32.5 48.5q43 43 108 43q96 0 134 -91q12 -28 12 -58.5t-11.5 -56.5t-31 -45.5t-46 -30.5zM973.5 1747q-26.5 -11 -58 -11t-60 11t-48.5 31q-45 42 -45 87t12 72.5t33 48.5
q43 43 110 43q95 0 132 -91q11 -28 11 -58.5t-11 -56.5t-30 -45.5t-45.5 -30.5z" />
    <glyph glyph-name="wdieresis" unicode="&#x1e85;" horiz-adv-x="1877" 
d="M1137.5 1440.5q-44.5 42.5 -44.5 87.5t12 73t33 49q43 43 110 43q62 0 105.5 -43.5t43.5 -108.5q0 -59 -43 -101q-45 -42 -92 -42q-80 0 -124.5 42.5zM760 1409.5q-27 -11.5 -59 -11.5t-60.5 11.5t-50.5 30.5q-45 42 -45 87.5t12 73.5t33 49q46 43 112 43q98 0 136 -92
q11 -28 11 -58.5t-11.5 -56.5t-31 -45.5t-46.5 -31zM1857 1076q-20 8 -37.5 8t-34.5 -15.5t-33 -42.5q-28 -49 -62 -146l-317 -877l-119 -19l-235 644l-46 118q-12 35 -16 67l-281 -810l-111 -18l-8 1l-361 951q-16 44 -17 46q-20 59 -59 79.5t-95 20.5l14 108h552l-20 -115
q-35 7 -67.5 7t-50.5 -3t-30 -12q-25 -17 -25 -56t10 -84t27 -98t38 -110l85 -222q20 -52 34 -88q19 -52 34 -130q158 409 202 547l61 194q5 16 10 37.5t10 43.5q8 36 14 72q60 0 130 19q41 -207 175 -589l96 -268q11 -29 16 -55l209 622q18 54 18 105q0 76 -91 76
q-24 0 -67 -6l17 114h450z" />
    <glyph glyph-name="Ygrave" unicode="&#x1ef2;" horiz-adv-x="1364" 
d="M863.5 119.5q20.5 -10.5 76.5 -10.5t120 16l-9 -125h-698l8 109h43q128 0 157 24.5t36.5 58t7.5 88.5v254l-479 795q-32 47 -61 61q-51 24 -121 24l15 116h608l-26 -116q-103 0 -126.5 -8.5t-32 -22t-8.5 -39t14 -62t37.5 -80.5t54.5 -94l132 -210q34 -55 63 -109
l59 -125q152 283 188 357l62 129q57 123 61 150.5t3.5 45.5t-8.5 33q-20 35 -80 35q-40 0 -100 -12l15 128h558l-19 -116q-87 0 -119 -24q-49 -38 -99 -142l-377 -714v-186q0 -154 12 -186t32.5 -42.5zM354 2041l563 -260l-39 -118l-596 185z" />
    <glyph glyph-name="ygrave" unicode="&#x1ef3;" horiz-adv-x="1193" 
d="M1248 1074q-21 3 -34.5 3t-26.5 -12.5t-26.5 -35.5t-28.5 -55l-31 -73q-48 -113 -100 -251l-233 -618l-62 -158q-73 -177 -112 -235t-76 -90q-77 -67 -180 -67q-106 0 -210 92q-30 27 -52 57l65 111l9 1q118 -66 198 -66q108 0 183 158q20 42 35 81l39 101l-84 39l-3 1
l-348 857q-19 46 -32.5 81t-45.5 59t-49 24h-21q-4 0 -15 -1l14 112h506l-14 -110q-18 -3 -41 -3h-27q-48 0 -69 -38q-9 -17 -9 -40t12 -65.5t32 -100.5q61 -168 96 -254q149 -373 161 -401q93 254 114 317l91 262q77 211 77 259q0 63 -88 63q-33 0 -75 -6l17 117h461z
M228 1590l122 170l431 -344l-73 -113z" />
    <glyph glyph-name="endash" unicode="&#x2013;" horiz-adv-x="1533" 
d="M189 669h1175l-20 -163h-1175z" />
    <glyph glyph-name="emdash" unicode="&#x2014;" horiz-adv-x="2383" 
d="M197 669h2015l-19 -163h-2015z" />
    <glyph glyph-name="quoteleft" unicode="&#x2018;" horiz-adv-x="683" 
d="M477 1168q-31 -12 -71 -10t-73.5 20t-54.5 46q-101 135 44 370q65 104 124 159q100 92 126 91q58 -1 72 -36q-13 -12 -31 -34l-37 -50q-110 -151 -121 -244q97 -16 126 -106q21 -62 -10 -124q-29 -59 -94 -82z" />
    <glyph glyph-name="quoteright" unicode="&#x2019;" horiz-adv-x="683" 
d="M306 1742q31 12 71 10t73.5 -20t54.5 -46q101 -135 -44 -370q-65 -104 -124 -159q-100 -92 -126 -91q-58 1 -72 36q13 12 31 34l37 50q110 151 121 244q-97 16 -126 106q-21 62 10 124q29 59 94 82z" />
    <glyph glyph-name="quotesinglbase" unicode="&#x201a;" horiz-adv-x="683" 
d="M285 333q31 12 71 10t73.5 -20t54.5 -46q101 -135 -44 -370q-65 -104 -124 -159q-100 -92 -126 -91q-58 1 -72 36q13 12 31 34l37 50q110 151 121 244q-97 16 -126 106q-21 62 10 124q29 59 94 82z" />
    <glyph glyph-name="quotedblleft" unicode="&#x201c;" horiz-adv-x="1366" 
d="M569 1168q-31 -12 -71 -10t-73.5 20t-54.5 46q-101 135 44 370q65 104 124 159q100 92 126 91q58 -1 72 -36q-13 -12 -31 -34l-37 -50q-110 -151 -121 -244q97 -16 126 -106q21 -62 -10 -124q-29 -59 -94 -82zM1068 1168q-31 -12 -71 -10t-73.5 20t-54.5 46
q-101 135 44 370q65 104 124 159q100 92 126 91q58 -1 72 -36q-13 -12 -31 -34l-37 -50q-110 -151 -121 -244q97 -16 126 -106q21 -62 -10 -124q-29 -59 -94 -82z" />
    <glyph glyph-name="quotedblright" unicode="&#x201d;" horiz-adv-x="1366" 
d="M397 1742q31 12 71 10t73.5 -20t54.5 -46q101 -135 -44 -370q-65 -104 -124 -159q-100 -92 -126 -91q-58 1 -72 36q13 12 31 34l37 50q110 151 121 244q-97 16 -126 106q-21 62 10 124q29 59 94 82zM896 1741q31 12 71 10t73.5 -20t54.5 -46q101 -135 -44 -370
q-65 -104 -124 -159q-100 -92 -126 -91q-58 1 -72 36q13 12 31 34l37 50q110 151 121 244q-97 16 -126 106q-21 62 10 124q29 59 94 82z" />
    <glyph glyph-name="quotedblbase" unicode="&#x201e;" horiz-adv-x="1026" 
d="M242 331q31 12 71 10t73.5 -20t54.5 -46q101 -135 -44 -370q-65 -104 -124 -159q-100 -92 -126 -91q-58 1 -72 36q13 12 31 34l37 50q110 151 121 244q-97 16 -126 106q-21 62 10 124q29 59 94 82zM712 331q31 12 71 10t73.5 -20t54.5 -46q101 -135 -44 -370
q-65 -104 -124 -159q-100 -92 -126 -91q-58 1 -72 36q13 12 31 34l37 50q110 151 121 244q-97 16 -126 106q-21 62 10 124q29 59 94 82z" />
    <glyph glyph-name="dagger" unicode="&#x2020;" horiz-adv-x="1201" 
d="M549 1023l-345 -81q-70 -12 -104 36q-16 23 -16 72v153l467 -90l-92 428q-13 65 39 97q24 16 75 16h174l-97 -542l465 91v-153q0 -81 -60 -102q-26 -10 -52.5 -6t-56.5 11l-202 44q-32 7 -57 13l-38 9l90 -1074q12 -63 -35 -97q-25 -17 -79 -17h-174z" />
    <glyph glyph-name="daggerdbl" unicode="&#x2021;" horiz-adv-x="1196" 
d="M81 436q0 83 59 104q26 9 60 4l345 -77l-65 283l66 273l-345 -81q-70 -12 -103 36q-17 23 -17 72v153l467 -90l-92 428q-13 65 38 97q25 16 76 16h175l-98 -542l465 91v-153q0 -81 -60 -102q-26 -10 -52.5 -6t-56.5 11l-201 44q-32 7 -57 13l-38 9l66 -269l-66 -287
l345 81q70 12 104 -36q16 -23 16 -72v-153l-467 90l92 -429q13 -64 -39 -98q-25 -15 -75 -15h-175l98 542l-465 -89v152z" />
    <glyph glyph-name="bullet" unicode="&#x2022;" horiz-adv-x="1195" 
d="M595 349q-112 0 -189 77q-79 79 -79 196q0 115 79 195q76 78 189 78q115 0 191 -78q80 -81 80 -195q0 -116 -80 -196q-77 -77 -191 -77z" />
    <glyph glyph-name="ellipsis" unicode="&#x2026;" horiz-adv-x="1536" 
d="M1276 281q63 0 109 -45q46 -44 46 -91.5t-12.5 -75t-33.5 -48.5q-45 -45 -109 -45t-109 45t-45 92q0 80 45.5 124t108.5 44zM623.5 69.5q-12.5 27.5 -12.5 59t12.5 59.5t33.5 48q46 45 109 45t109 -45q46 -44 46 -91.5t-12.5 -75t-33.5 -48.5q-45 -45 -93 -45t-76 12
t-49 33t-33.5 48.5zM240 281q47 0 75.5 -12t49.5 -33q46 -44 46 -91.5t-12.5 -75t-33.5 -48.5q-45 -45 -110 -45q-63 0 -108 45q-46 46 -46 93q0 78 46 122.5t93 44.5z" />
    <glyph glyph-name="perthousand" unicode="&#x2030;" horiz-adv-x="3233" 
d="M1371 1545h158l-700 -1545h-157zM528 660q-84 2 -151.5 31.5t-117.5 83.5q-109 118 -105 306q4 198 124 327q124 136 314 136q152 0 272 -128q116 -126 116 -282q0 -225 -137 -355q-128 -122 -315 -119zM484.5 783.5q37.5 -28.5 83.5 -28.5t84 24.5t65 68.5q56 91 56 243
q0 147 -59 253q-60 108 -148 108q-138 0 -186 -173q-17 -61 -17 -144.5t15 -152.5t42 -119.5t64.5 -79zM2253 408q2 94 34 178t89 146q124 136 314 136q152 0 272 -128q116 -126 116 -282q0 -223 -138 -356q-129 -123 -322 -117q-152 6 -257 120q-112 121 -108 303z
M1242 408q2 94 34 178t89 146q124 136 314 136q152 0 271 -128q117 -126 117 -282q0 -223 -138 -356q-129 -123 -322 -117q-152 6 -257 120q-112 121 -108 303zM2480 606q-17 -61 -19 -148t12.5 -156t41.5 -118q56 -104 150 -104t150 92q56 93 56 244q0 146 -59 252
q-60 108 -149 108q-136 0 -183 -170zM1469 606q-17 -61 -19 -148t12.5 -156t41.5 -118q56 -104 150 -104t150 92q56 93 56 244q0 146 -58 252q-61 108 -150 108q-136 0 -183 -170z" />
    <glyph glyph-name="guilsinglleft" unicode="&#x2039;" horiz-adv-x="1193" 
d="M739 1122l113 -75l-305 -447l305 -449l-116 -84l-507 533z" />
    <glyph glyph-name="guilsinglright" unicode="&#x203a;" horiz-adv-x="1193" 
d="M429 67l-113 75l305 447l-305 449l116 84l507 -533z" />
    <glyph glyph-name="fraction" unicode="&#x2044;" horiz-adv-x="1196" 
d="M1054 1722l82 -44q20 -12 26 -15l-1024 -1896l-107 60z" />
    <glyph glyph-name="Euro" unicode="&#x20ac;" horiz-adv-x="1535" 
d="M1402 343q23 -44 23 -154q0 -107 -151 -160q-125 -44 -342 -44q-237 0 -416 123q-212 144 -273 423q-47 -2 -93 -5l-90 -6l29 145l135 -6q-5 65 -5 106t5 106l-118 -8l29 145q28 -2 56 -3l57 -2q66 254 268 397q202 144 493 144q140 0 272 -46q156 -53 156 -139
q0 -75 -37 -140q-12 -21 -27 -33h-122q0 156 -149 216q-63 25 -156 25t-165.5 -28.5t-131.5 -82.5q-122 -113 -164 -317h87q252 0 457 9l-28 -145q-257 18 -363 18h-128q-20 0 -41 -1q-2 -36 -2 -95t8 -129h51q252 0 457 9l-28 -145q-254 18 -449 18h-11q50 -214 175 -330
q115 -106 264 -106q184 0 276 86q69 65 69 155h123z" />
    <glyph glyph-name="trademark" unicode="&#x2122;" horiz-adv-x="2729" 
d="M1458.5 594.5q16.5 -4.5 37 -4.5t81.5 9l-9 -94h-396l3 84q60 -2 78 18q24 26 44 94q15 71 31 153q86 466 86 527.5t-51 61.5q-31 0 -69 -11l10 98h353q3 -45 52 -195l127 -382l55 -155q202 659 210 686l15 46h332l-11 -87q-56 0 -74 -15q-31 -26 -21 -96.5t24 -154.5
l28 -166q34 -194 53.5 -277.5t27.5 -102t17 -27.5q26 -23 114 -4l-8 -95h-461l7 76q124 0 124 104q0 17 -8.5 64.5t-20.5 122.5l-73 456l-253 -817l-115 -17l-267 835q-12 -78 -27 -162l-50 -265q-34 -189 -34 -222t2.5 -47.5t11 -24t25 -14zM761 591q47 0 92 8l-8 -94h-489
l5 84q99 0 125 42q18 27 18 129v679h-113q-70 0 -95 -28q-36 -41 -67 -149h-88l26 184q6 43 11 84h874v-268h-99q0 81 -21 113q-38 58 -110 64h-129v-720q0 -106 39 -123q12 -5 29 -5z" />
    <glyph glyph-name="partialdiff" unicode="&#x2202;" horiz-adv-x="1364" 
d="M240 1558l80 1q339 0 540 -109q363 -194 363 -725q0 -318 -132 -517q-146 -220 -412 -220q-225 0 -362 114q-105 87 -151 234q-30 96 -30 202t42 198.5t117 159.5q158 141 405 141q160 0 292 -73q-49 205 -193 326q-190 160 -512 160q-17 0 -32.5 -0.5t-43.5 -0.5
q29 98 29 109zM352 516q0 -169 84 -288q91 -129 234 -129q83 0 133.5 29.5t87 71.5t65.5 112q62 155 62 421q0 20 -1 39l-2 39q-164 91 -321 91q-177 0 -264 -114q-78 -100 -78 -272z" />
    <glyph glyph-name="product" unicode="&#x220f;" horiz-adv-x="1535" 
d="M1318 -54q16 -7 60 -7t91 14l-12 -123h-584l19 109q99 0 134 53q29 44 29 164v1057q0 127 -14.5 155.5t-36 36.5t-57.5 8h-348q-44 0 -72.5 -5t-44.5 -25q-29 -35 -29 -176v-1108q0 -107 10 -129t22.5 -26.5t40.5 -4.5q52 0 116 16l-15 -125h-557l17 107l7 2q76 0 109 43
q36 48 36 155v1083q0 193 -87 193q-47 0 -89 -9l12 125h1376l-14 -116q-91 0 -119 -29q-49 -52 -49 -172v-1124q0 -84 16.5 -109.5t32.5 -32.5z" />
    <glyph glyph-name="summation" unicode="&#x2211;" horiz-adv-x="1533" 
d="M1366 237q0 -157 -54 -409h-1111l-19 62l509 793l-489 763l16 83l708 1q249 0 365 16q0 -225 -46 -378h-100q-10 161 -63 207q-30 25 -77.5 31.5t-119.5 6.5h-440l473 -727l-459 -745l494 10q257 6 290 286h123z" />
    <glyph glyph-name="minus" unicode="&#x2212;" horiz-adv-x="1366" 
d="M180 876h906v-158h-906v158z" />
    <glyph glyph-name="radical" unicode="&#x221a;" horiz-adv-x="1702" 
d="M164 589l173 121h230l293 -833l576 1991h237l-718 -2221h-169l-405 901l-123 -81z" />
    <glyph glyph-name="infinity" unicode="&#x221e;" horiz-adv-x="1877" 
d="M521 140.5q-72 -1.5 -144.5 33.5t-121.5 94q-99 121 -101 298q-4 226 123 379q125 150 313 154q191 3 318 -169q43 -59 73 -138q62 155 186 242q79 56 172 58t165.5 -33.5t121.5 -94.5q97 -118 101 -297q4 -225 -124 -379q-125 -150 -313 -154q-191 -3 -318 168
q-43 58 -73 138q-40 -99 -121 -186q-63 -67 -124 -89.5t-133 -24zM643 342q44 13 83 38q86 55 128 150l-76 162q-76 153 -155 202q-44 27 -106.5 25.5t-111.5 -30.5t-81 -73q-63 -87 -61 -201q2 -134 93 -217q120 -108 287 -56zM1026 703q92 -205 140.5 -270t92 -93
t105 -26.5t111 30.5t81.5 73q63 87 61 180.5t-27 148.5t-66 91q-80 71 -198 69q-145 -3 -245 -116q-33 -38 -55 -87z" />
    <glyph glyph-name="integral" unicode="&#x222b;" horiz-adv-x="1024" 
d="M-4 -469q-10 8 -10 123.5t28 248.5h108q15 -112 36 -156q45 -93 148.5 -93t151.5 82t48 247q0 187 -53 456l-61 303q-53 267 -53 413t29.5 239.5t85.5 163.5q120 153 312 153l201 -12h56q24 0 41 0.5t30 1.5q0 -146 -34 -356h-109l-17 84q-31 159 -175 159
q-130 0 -183 -80q-49 -73 -49 -250q0 -189 53 -456l62 -303q53 -269 53 -428.5t-34 -259t-93 -165.5q-119 -133 -318 -133q-41 0 -102 9t-152 9z" />
    <glyph glyph-name="approxequal" unicode="&#x2248;" horiz-adv-x="1024" 
d="M712.5 389q52.5 0 130.5 84l63 -105q-15 -34 -59 -71q-95 -78 -188 -78q-50 0 -129 48q-3 1 -53 30t-71 39q-48 22 -78.5 22t-46 -4.5t-31.5 -14.5q-27 -16 -76 -67l-64 106q3 7 23 31t53 50q86 68 173 68q60 0 154 -56q50 -31 98.5 -56.5t101 -25.5zM716.5 806
q52.5 0 130.5 84l63 -105q-15 -34 -59 -71q-95 -78 -188 -78q-50 0 -129 48q-3 1 -53 30t-71 39q-48 22 -78.5 22t-46 -4.5t-31.5 -14.5q-27 -16 -76 -67l-64 106q3 7 23 31t53 50q86 68 173 68q60 0 154 -56q50 -31 98.5 -56.5t101 -25.5z" />
    <glyph glyph-name="notequal" unicode="&#x2260;" horiz-adv-x="1364" 
d="M503 341h-317l19 162h361l68 178h-444l19 162h488l132 344h160l-133 -344h321l-20 -162h-364l-69 -178h449l-20 -162h-491l-132 -341h-158z" />
    <glyph glyph-name="lessequal" unicode="&#x2264;" horiz-adv-x="1364" 
d="M173 1019l958 427v-177l-712 -293l712 -296v-179l-958 435v83zM173 327h958v-151h-958v151z" />
    <glyph glyph-name="greaterequal" unicode="&#x2265;" horiz-adv-x="1364" 
d="M1185 1019l-958 427v-177l712 -293l-712 -296v-179l958 435v83zM1185 327h-958v-151h958v151z" />
    <glyph glyph-name="lozenge" unicode="&#x25ca;" horiz-adv-x="1415" 
d="M182 692v52l431 671h196l422 -691v-52l-431 -672h-197zM1047 679l-349 597l-333 -540l350 -597z" />
    <glyph glyph-name="ff" unicode="&#xfb00;" horiz-adv-x="1704" 
d="M457 1037l1 -791q0 -91 18 -111t40.5 -24.5t43.5 -4.5t43 0.5t51 1.5q67 2 112 8l-13 -116h-684l13 106q63 0 98 7t52.5 31t21.5 69.5t4 121.5l-2 702h-176l11 108q45 3 100 20t67 23q-4 28 -4 69t13.5 97.5t40 109.5t65 100.5t89.5 83.5q110 76 251 76q181 0 245 -108
q29 -48 29 -99q0 -62 -19 -144l-3 -18h-159v86q0 64 -26 88q-46 44 -142 44q-133 0 -176 -129q-17 -48 -17 -117t11 -137h331l-12 -153h-318zM1309 1037l1 -791q0 -91 18 -111t40.5 -24.5t43.5 -4.5t43 0.5t51 1.5q67 2 112 8l-13 -116h-684l13 106q63 0 98 7t52.5 31
t21.5 69.5t4 121.5l-2 702h-176l11 108q45 3 100 20t67 23q-4 28 -4 69t13.5 97.5t40 109.5t65 100.5t89.5 83.5q110 76 251 76q181 0 245 -108q29 -48 29 -99q0 -62 -19 -144l-3 -18h-159v86q0 64 -26 88q-46 44 -142 44q-133 0 -176 -129q-17 -48 -17 -117t11 -137h331
l-12 -153h-318z" />
    <glyph glyph-name="fi" unicode="&#xfb01;" horiz-adv-x="1535" 
d="M457 1037l1 -791q0 -91 18 -111t40.5 -24.5t43.5 -4.5t43 0.5t51 1.5q67 2 112 8l-13 -116h-684l13 106q63 0 98 7t52.5 31t21.5 69.5t4 121.5l-2 702h-176l11 108q45 3 100 20t67 23q-4 28 -4 69t13.5 97.5t40 109.5t65 100.5t89.5 83.5q110 76 251 76q181 0 245 -108
q29 -48 29 -99q0 -62 -19 -144l-3 -18h-159v86q0 64 -26 88q-46 44 -142 44q-133 0 -176 -129q-17 -48 -17 -117t11 -137h331l-12 -153h-318zM1285 1406q-28 -11 -61 -11t-62 11.5t-50 31.5q-46 42 -46 91.5t12 78.5t34 50q46 45 113 45q65 0 109 -45q43 -45 43 -113
q0 -101 -92 -139zM1361 1210q-45 -130 -45 -512l7 -466q0 -61 19 -93.5t76 -32.5q46 0 82 12l-14 -118h-537l18 106q98 0 133 54q29 46 29 153v523q0 125 -44 162q-35 30 -154 30l16 126z" />
    <glyph glyph-name="fl" unicode="&#xfb02;" horiz-adv-x="1535" 
d="M457 1037l1 -791q0 -91 18 -111t40.5 -24.5t43.5 -4.5t43 0.5t51 1.5q67 2 112 8l-13 -116h-684l13 106q63 0 98 7t52.5 31t21.5 69.5t4 121.5l-2 702h-176l11 108q45 3 100 20t67 23q-4 28 -4 69t13.5 97.5t40 109.5t65 100.5t89.5 83.5q110 76 251 76q181 0 245 -108
q29 -48 29 -99q0 -62 -19 -144l-3 -18h-159v86q0 64 -26 88q-46 44 -142 44q-133 0 -176 -129q-17 -48 -17 -117t11 -137h331l-12 -153h-318zM1327 1705q-21 -109 -21 -438v-72l2 -957q0 -82 12 -102q19 -30 67 -30q67 0 117 11l-16 -117h-579l17 106q104 0 133.5 23
t38 47.5t8.5 60.5v1128q0 85 -10.5 106t-19 31.5t-26 17t-40.5 8.5q-32 4 -106 4l12 114z" />
  </font>
</defs>
</svg>
